Hvězdná brána: Hluboký vesmír /Stargate Universe (2009-2011) - download, online

LIVE STREAMINGNápoveda • Pravidlá fóra • Hľadať • Zoznam užívateľov • Kontakt • Moja IP • Môj profil • Výroba nožov • Stahuj z FastShare.cz • Prihlásenie
Nový youtuber showPayneOdmeny uživatelomRegistrácia • Väzenie • Nastavenia • Súkromné správy • Humorné darčeky pre každý okamih


TIP: Hrajte o skvělé ceny každý den (free spiny, mobily, tablety, PS4) v casinu Tipsport Vegas ››
IZMAEL.eu Tipsport Casino bonus 5 000 Kč

Hvězdná brána: Hluboký vesmír /Stargate Universe (2009-2011)

 LinkChecker
                                                 Našli ste pravidlá porušujúci príspevok alebo nefunkčný odkaz? Nahláste ho tlačidlom:                 Zobraziť predchádzajúcu tému Zobraziť nasledujúcu tému
Autor Správa
devolver
Prezerateľ



Založený: 15 december 2012
Príspevky: 1
Poďakovaní 11 v 1 Príspevkoch

PríspevokZaslal: So december 15, 2012 4:18 am    Predmet: Hvězdná brána: Hluboký vesmír /Stargate Universe (2009-2011) Odpovedať s citátom
Hvězdná brána: Hluboký vesmír / Hviezdna brána: Hlboký vesmír / SGU Stargate Universe (2009 - 2011)

Doporučujeme: Sledujte športové prenosy naživo a zadarmo ?
Len registrovaní užívatelia môžu vidiet odkazy v tejto sekcii
Zaregistrujte sa alebo sa prihláste !


Sci-Fi / Dobrodružný / Akční
Kanada / USA, 2009 - 2011, 29 h 22 min (Minutáž: 40x43 min)




Obsah:

Již třetí STARGATE seriál nás vezme na palubu antické lodi Destiny, o miliony let starší než Atlantis, kterou
jako pýchu své civilizace vypustili Antici. Byl to jejich velký experiment uvedený do pohybu, ovšem nikdy nedokončen.
Cílem tohoto experimentu bylo rozsévání hvězdných bran skrz galaxie. Lidé zjistí, že záhadný devátý chevron na bráně
může sloužit právě ke spojení s touhle lodí a tak se vydávají na průzkumnou misi. Záhy ale zjistí, že jsou na palubě
Destiny uvězněni, jelikož je loď neschopna návratu na Zem. Pouhý průzkum se tak promění v nikdy nekončící misi. Posádka
tak chtě nechtě naplňuje původní účel mise. Spojuje se s každou předešle vypuštěnou bránou a přichází do kontaktu s novými
rasami, technologiemi, ale také s nepřáteli. Co jejich misi ztěžuje je neschopnost kontrolovat navigační program lodi.
Když někdo zůstane pozadu, je navždy ztracen.

Série 1 (2009) - 20 epizod
Série 2 (2010) - 20 epizod







KVALITA:

DVDRip
Zdroj zvuku: TVRip

General
Complete name : stargate.universe.s01e01-e02.xvid.cz-hermiod.avi
Format : AVI
Format/Info : Audio Video Interleave
File size : 693 MiB
Duration : 1h 23mn
Overall bit rate : 1 155 Kbps
Writing application : VirtualDubMod 1.5.10.2 (build 2540/release)
Writing library : VirtualDubMod build 2540/release

Video
ID : 0
Format : MPEG-4 Visual
Format profile : Simple@L0
Format settings, BVOP : No
Format settings, QPel : No
Format settings, GMC : No warppoints
Format settings, Matrix : Default (H.263)
Codec ID : XVID
Codec ID/Hint : XviD
Duration : 1h 23mn
Bit rate : 1 018 Kbps
Width : 640 pixels
Height : 352 pixels
Display aspect ratio : 16:9
Frame rate : 25.000 fps
Original frame rate : 23.976 fps
Color space : YUV
Chroma subsampling : 4Plač0
Bit depth : 8 bits
Scan type : Progressive
Compression mode : Lossy
Bits/(Pixel*Frame) : 0.181
Stream size : 610 MiB (88%)
Writing library : XviD 1.0.3 (UTC 2004-12-20)

Audio
ID : 1
Format : MPEG Audio
Codec ID : 55
Codec ID/Hint : MP3
Duration : 1h 23mn
Bit rate : 128 Kbps
Channel(s) : 2 channels
Sampling rate : 48.0 KHz
Compression mode : Lossy
Stream size : 76.8 MiB (11%)
Alignment : Split accross interleaves
Interleave, duration : 40 ms (1.00 video frame)
Interleave, preload duration : 504 ms

UKAZKA:


DOWNLOAD:
1. SERIA




Doporučujeme: Sledujte športové prenosy naživo a zadarmo ?
Len registrovaní užívatelia môžu vidiet odkazy v tejto sekcii
Zaregistrujte sa alebo sa prihláste !









2. SERIA


Doporučujeme: Sledujte športové prenosy naživo a zadarmo ?
Len registrovaní užívatelia môžu vidiet odkazy v tejto sekcii
Zaregistrujte sa alebo sa prihláste !


Naposledy upravil devolver dňa Št február 21, 2013 1:09 am, celkom upravené 38 krát.

Zobrazit informácie o autoroviOdoslať súkromnú správu
Za príspevok poďakoval: snikel, BaRNey, asterixsvk, compi, tkmk96, tmiso, rostman, Reven
dlw
Prispievateľ



Založený: 13 október 2008
Príspevky: 164
Poďakovaní 3 v 3 Príspevkoch

PríspevokZaslal: Po jún 05, 2017 9:51 pm    Predmet: Hvězdná brána:Hluboký vesmír/SGU Stargate Universe (2009 - 2 Odpovedať s citátom
Hvězdná brána:Hluboký vesmír/SGU Stargate Universe (2009 - 2011) cz dabing



Sci-Fi / Dobrodružný / Akční
Kanada / USA, 2009 - 2011, 29 h 22 min (Minutáž: 40x43 min)

Séria 1 (2009) - 20 epizod
Séria 2 (2010) - 20 epizod

Doporučujeme: Sledujte športové prenosy naživo a zadarmo ?
Len registrovaní užívatelia môžu vidiet odkazy v tejto sekcii
Zaregistrujte sa alebo sa prihláste !


Séria 1 20 epizod 6265 MB :


Doporučujeme: Sledujte športové prenosy naživo a zadarmo ?
Len registrovaní užívatelia môžu vidiet odkazy v tejto sekcii
Zaregistrujte sa alebo sa prihláste !



Séria 2 20 epizod 7621 MB:

Doporučujeme: Sledujte športové prenosy naživo a zadarmo ?
Len registrovaní užívatelia môžu vidiet odkazy v tejto sekcii
Zaregistrujte sa alebo sa prihláste !





[/code]

Zobrazit informácie o autoroviOdoslať súkromnú správu
Zobraziť príspevky z predchádzajúcich:   
Prejsť na:   
Nemôžete pridávať nové témy do tejto sekcie.
Nemôžete odpovedať na témy v tejto sekcii.
Nemôžete upravovať svoje príspevky v tejto sekcii.
Nemôžete mazať svoje príspevky v tejto sekcii.
Nemôžete hlasovať v tomto fóre.

TOPlist

TOPlist TOPlist TOPlist

Upozornenie: Tato stránka služi výhradne ako diskúsne fórum prinášajúce množstvo informácií, rád, recenzií a návodov a je vám umožnené použivať ju len pre tento účel! Nevyúživajte túto stránku k uverejňovaniu akéhokolvek materiálu ku ktorému nemáte legálne opravnenie, alebo nie ste jeho vlastníkom. Prevádzkovatel tejto stránky odmieta akúkolvek zodpovednosť za vami uverejnené odkazy alebo materiál v rozpore so zákonom! Akékolvek šírenie autorsky chránených diel bez súhlasu autora je trestné!

V prípade najdenia nelegálneho obsahu nás prosím okamžite kontaktujte.

contatore visitewebsite counter

Odkazy: Internet, Vyšívané osušky, Vtipné tričká, Vtipné darčeky, Upload obrázkov
[ Doba načítania stránky: 0.3 sekúnd ] :: [ 22 dotazov ]
Powered by php.B.B. © php.B.B. Group © Best4you.sk 2007-2015