Válka o planetu opic / War for the Planet of the Apes (2017) - download, online

LIVE STREAMINGNápoveda • Pravidlá fóra • Hľadať • Zoznam užívateľov • Kontakt • Moja IP • Môj profil • Výroba nožov • Stahuj z FastShare.cz • Prihlásenie
Nový youtuber showPayneOdmeny uživatelomRegistrácia • Väzenie • Nastavenia • Súkromné správy • Humorné darčeky pre každý okamih


IZMAEL.eu

Válka o planetu opic / War for the Planet of the Apes (2017)

 LinkChecker
                                                 Našli ste pravidlá porušujúci príspevok alebo nefunkčný odkaz? Nahláste ho tlačidlom:                 Zobraziť predchádzajúcu tému Zobraziť nasledujúcu tému
Autor Správa
sniper00
Mierne pokročilý



Založený: 06 september 2008
Príspevky: 358
Poďakovaní 11 v 10 Príspevkoch

PríspevokZaslal: So október 21, 2017 11:05 pm    Predmet: Válka o planetu opic / Vojna o planétu opíc / War for the..( Odpovedať s citátom





Doporučujeme: Sledujte športové prenosy naživo a zadarmo ?
Len registrovaní užívatelia môžu vidiet odkazy v tejto sekcii
Zaregistrujte sa alebo sa prihláste !




3D




Free download link / Stiahnut zadarmo:

\3D\Válka o planetu opic\Válka o planetu opic.mkv

Format: Matroska
Format version: Version 4 / Version 2
File size: 21.2 GiB
Duration: 2 h 20 min
Overall bit rate: 21.7 Mb/s
Movie name: Válka o planetu opic
Encoded date: UTC 2017-10-19 10:22:48
Writing application: mkvmerge v7.3.0 ('Nouages' 32bit built on Oct 22 2014 18:44:01
Writing library: libebml v1.3.0 + libmatroska v1.4.1

Video
ID: 1
Format: AVC
Format/Info: Advanced Video Codec
Format profile: High@L4.1
Format settings, CABAC: Yes
Format settings, ReFrames: 2 frames
Codec ID: V_MPEG4/ISO/AVC
Duration: 2 h 20 min
Bit rate: 20.7 Mb/s
Width: 1 920 pixels
Height: 1 080 pixels
Display aspect ratio: 16:9
Frame rate mode: Constant
Frame rate: 23.976 (24000/1001) FPS
Color space: YUV
Chroma subsampling: 4Plač0
Bit depth: 8 bits
Scan type: Progressive
Bits/(Pixel*Frame): 0.417
Stream size: 20.3 GiB (96%)
Writing library: x264 core 142
Encoding settings: cabac=1 / ref=1 / deblock=1:-1:-1 / analyse=0x3:0 / me=hex / subme=5 / psy=0 / mixed_ref=0 / me_range=16 / chroma_me=1 / trellis=0 / 8x8dct=1 / cqm=0 / deadzone=21,11 / fast_pskip=1 / chroma_qp_offset=0 / threads=4 / lookahead_threads=1 / sliced_threads=0 / nr=0 / decimate=1 / interlaced=0 / bluray_compat=0 / constrained_intra=0 / bframes=2 / b_pyramid=0 / b_adapt=1 / b_bias=0 / direct=1 / weightb=1 / open_gop=0 / weightp=0 / keyint=24 / keyint_min=13 / scenecut=40 / intra_refresh=0 / rc=abr / mbtree=0 / bitrate=20732 / ratetol=1.0 / qcomp=0.60 / qpmin=0 / qpmax=69 / qpstep=4 / ip_ratio=1.40 / pb_ratio=1.30 / aq=1:1.00
Default: Yes
Forced: No
Color range: Limited
Color primaries: BT.709
Transfer characteristics: BT.709
Matrix coefficients: BT.709

Audio #1
ID: 2
Format: AC-3
Format/Info: Audio Coding 3
Mode extension: CM (complete main)
Format settings, Endianness: Big
Codec ID: A_AC3
Duration: 2 h 20 min
Bit rate mode: Constant
Bit rate: 448 kb/s
Channel(s): 6 channels
Channel positions: Front: L C R, Side: L R, LFE
Sampling rate: 48.0 kHz
Frame rate: 31.250 FPS (1536 spf)
Bit depth: 16 bits
Compression mode: Lossy
Stream size: 449 MiB (2%)
Language: Czech
Default: Yes
Forced: No

Audio #2
ID: 3
Format: AC-3
Format/Info: Audio Coding 3
Mode extension: CM (complete main)
Format settings, Endianness: Big
Codec ID: A_AC3
Duration: 2 h 20 min
Bit rate mode: Constant
Bit rate: 448 kb/s
Channel(s): 6 channels
Channel positions: Front: L C R, Side: L R, LFE
Sampling rate: 48.0 kHz
Frame rate: 31.250 FPS (1536 spf)
Bit depth: 16 bits
Compression mode: Lossy
Stream size: 449 MiB (2%)
Language: English
Default: No
Forced: No

Text #1
ID: 4
Format: PGS
Muxing mode: zlib
Codec ID: S_HDMV/PGS
Codec ID/Info: Picture based subtitle format used on BDs/HD-DVDs
Duration: 2 h 8 min
Bit rate: 1 924 b/s
Count of elements: 1172
Stream size: 1.78 MiB (0%)
Language: English
Default: No
Forced: No

Text #2
ID: 5
Format: PGS
Muxing mode: zlib
Codec ID: S_HDMV/PGS
Codec ID/Info: Picture based subtitle format used on BDs/HD-DVDs
Duration: 2 h 18 min
Bit rate: 1 865 b/s
Count of elements: 1204
Stream size: 1.85 MiB (0%)
Language: Czech
Default: No
Forced: No

Menu
00:00:00.000 : en01)00:00:00:000
00:05:05.888 : en02)00:05:05:888
00:09:06.712 : en03)00:09:06:712
00:12:14.108 : en04)00:12:14:108
00:18:21.016 : en05)00:18:21:016
00:25:04.503 : en06)00:25:04:503
00:30:17.398 : en07)00:30:17:398
00:34:13.092 : en08)00:34:13:092
00:37:46.347 : en09)00:37:46:347
00:42:54.446 : en10)00:42:54:446
00:49:31.802 : en11)00:49:31:802
00:54:14.626 : en12)00:54:14:626
00:58:49.817 : en13)00:58:49:817
01:05:24.128 : en14)01:05:24:128
01:10:18.380 : en15)01:10:18:380
01:14:53.822 : en16)01:14:53:822
01:18:59.192 : en17)01:18:59:192
01:25:35.672 : en18)01:25:35:672
01:29:37.372 : en19)01:29:37:372
01:34:22.823 : en20)01:34:22:823
01:39:27.711 : en21)01:39:27:711
01:43:48.222 : en22)01:43:48:222
01:48:45.393 : en23)01:48:45:393
01:55:20.580 : en24)01:55:20:580
01:58:04.702 : en25)01:58:04:702
02:02:33.929 : en26)02:02:33:929
02:05:54.797 : en27)02:05:54:797
02:12:51.213 : en28)02:12:51:213

Jazyk : CZ Dabing




Doporučujeme: Sledujte športové prenosy naživo a zadarmo ?
Len registrovaní užívatelia môžu vidiet odkazy v tejto sekcii
Zaregistrujte sa alebo sa prihláste !

Zobrazit informácie o autoroviOdoslať súkromnú správu
Rozdelené: Ne október 22, 2017 12:41 am, spojil Asgard
Z témy Válka o planetu opic / Vojna o planétu opíc / War for the..(2017) (Filmy HD - SK/CZ dabing)
Zobraziť príspevky z predchádzajúcich:   
Prejsť na:   
Nemôžete pridávať nové témy do tejto sekcie.
Nemôžete odpovedať na témy v tejto sekcii.
Nemôžete upravovať svoje príspevky v tejto sekcii.
Nemôžete mazať svoje príspevky v tejto sekcii.
Nemôžete hlasovať v tomto fóre.

TOPlist

TOPlist TOPlist TOPlist

Upozornenie: Tato stránka služi výhradne ako diskúsne fórum prinášajúce množstvo informácií, rád, recenzií a návodov a je vám umožnené použivať ju len pre tento účel! Nevyúživajte túto stránku k uverejňovaniu akéhokolvek materiálu ku ktorému nemáte legálne opravnenie, alebo nie ste jeho vlastníkom. Prevádzkovatel tejto stránky odmieta akúkolvek zodpovednosť za vami uverejnené odkazy alebo materiál v rozpore so zákonom! Akékolvek šírenie autorsky chránených diel bez súhlasu autora je trestné!

V prípade najdenia nelegálneho obsahu nás prosím okamžite kontaktujte.

contatore visitewebsite counter

Odkazy: Internet, Vyšívané osušky, Vtipné tričká, Vtipné darčeky, Upload obrázkov
[ Doba načítania stránky: 0.2 sekúnd ] :: [ 14 dotazov ]
Powered by php.B.B. © php.B.B. Group © Best4you.sk 2007-2015