Úsvit mrtvých / Úsvit mŕtvych / Dawn of the Dead (2004) - download, online

LIVE STREAMINGNápoveda • Pravidlá fóra • Hľadať • Zoznam užívateľov • Kontakt • Moja IP • Môj profil • Výroba nožov • Stahuj z FastShare.cz • Prihlásenie
Nový youtuber showPayneOdmeny uživatelomRegistrácia • Väzenie • Nastavenia • Súkromné správy • Humorné darčeky pre každý okamih


IZMAEL.eu

Úsvit mrtvých / Úsvit mŕtvych / Dawn of the Dead (2004)

 LinkChecker
                                                 Našli ste pravidlá porušujúci príspevok alebo nefunkčný odkaz? Nahláste ho tlačidlom:                 Zobraziť predchádzajúcu tému Zobraziť nasledujúcu tému
Autor Správa
kaake
Občasný prispievateľ



Založený: 08 január 2013
Príspevky: 59
Poďakovaní 0 v 0 Príspevkoch

PríspevokZaslal: Ut november 14, 2017 3:16 pm    Predmet: Úsvit mrtvých / Úsvit mŕtvych / Dawn of the Dead (2004) Odpovedať s citátom


Úsvit mrtvých / Úsvit mŕtvych / Dawn of the Dead (2004)



Doporučujeme: Sledujte športové prenosy naživo a zadarmo ?
Len registrovaní užívatelia môžu vidiet odkazy v tejto sekcii
Zaregistrujte sa alebo sa prihláste !


Jazyk: CZ

Format : AVI
Format/Info : Audio Video Interleave
Format profile : OpenDML
File size : 1.83 GiB
Duration : 1h 49mn
Overall bit rate : 2 399 Kbps
Writing application : Lavf51.12.1

Video
ID : 0
Format : AVC
Format/Info : Advanced Video Codec
Format profile : Baseline@L3.1
Format settings, CABAC : No
Format settings, ReFrames : 2 frames
Format settings, GOP : M=1, N=12
Codec ID : H264
Duration : 1h 49mn
Bit rate : 2 067 Kbps
Width : 1 280 pixels
Height : 720 pixels
Display aspect ratio : 16:9
Frame rate : 23.976 fps
Standard : NTSC
Color space : YUV
Chroma subsampling : 4Plač0
Bit depth : 8 bits
Scan type : Progressive
Bits/(Pixel*Frame) : 0.094
Stream size : 1.58 GiB (86%)
Color primaries : BT.601 NTSC
Transfer characteristics : BT.601
Matrix coefficients : BT.601

Audio
ID : 1
Format : MPEG Audio
Format version : Version 1
Format profile : Layer 3
Mode : Joint stereo
Codec ID : 55
Codec ID/Hint : MP3
Duration : 1h 49mn
Bit rate mode : Constant
Bit rate : 320 Kbps
Channel(s) : 2 channels
Sampling rate : 44.1 KHz
Compression mode : Lossy
Stream size : 250 MiB (13%)
Alignment : Aligned on interleaves
Interleave, duration : 26 ms (0.63 video frame)
Interleave, preload duration : 26 ms
Writing library : LAMEP‚


Zdravotní sestra Ana Clark (Sarah Polley), policista Kenneth (Ving Rhames), prodavač elektroniky Michael (Jake Weber) a pouliční chuligán (Mekhi Phifer) se svou těhotnou přítelkyní jsou hlavními postavami v apokalyptickém zombie horroru natočeném podle klasické filmové předlohy George A. Romera, Úsvit Mrtvých. Svět zachvátila nevysvětlitelná epidemie, která likviduje světovou populaci - avšak mrtví neumírají! Stávají se zombiemi, které se potulují po městě a využívají každou příležitost dostat se k masu a krvi zbylé hrstky živých lidí. Kde a jak to všechno začalo, nikdo neví. Zubožená skupina těch, kteří zatím přežili v jednom wisconsinském městě, našla úkryt ve velkém obchodním středisku. Zde se tito lidé musejí jednak naučit jak se bránit před stále početnější hordou zombií, ale především musí vyřešit problém vlastního soužití v uzavřeném prostoru. Venku už nic nepřipomíná někdejší svět. Situace se zdá bezvýchodnou, a tak skupina hledá riskantní cestu z obklíčení.

Doporučujeme: Sledujte športové prenosy naživo a zadarmo ?
Len registrovaní užívatelia môžu vidiet odkazy v tejto sekcii
Zaregistrujte sa alebo sa prihláste !



Linky sú vzájomne kombinovateľné, ak je ich rovnaký počet a veľkosť súboru !!
Ak sa vyskytne chyba pri rozbaľovaní, skúste si stiahnuť zlú časť ešte raz !!
Všetky moje uploady sú balené vo WinRARe, rozbaľujte ich iba v programe WinRAR !!
Všetky moje uploady odporúčam sťahovať v programe JDownloader !!
Čo bude časom zmazané, obnovovať nebudem !!
Za Power Uploaders pre Vás nahral kaake !!

Zobrazit informácie o autoroviOdoslať súkromnú správuICQ
Rozdelené: Ut november 14, 2017 9:01 pm, spojil Asgard
Z témy Úsvit mrtvých / Dawn of the Dead (2004) (Filmy AVI - SK/CZ dabing)
Zobraziť príspevky z predchádzajúcich:   
Prejsť na:   
Nemôžete pridávať nové témy do tejto sekcie.
Nemôžete odpovedať na témy v tejto sekcii.
Nemôžete upravovať svoje príspevky v tejto sekcii.
Nemôžete mazať svoje príspevky v tejto sekcii.
Nemôžete hlasovať v tomto fóre.

TOPlist

TOPlist TOPlist TOPlist

Upozornenie: Tato stránka služi výhradne ako diskúsne fórum prinášajúce množstvo informácií, rád, recenzií a návodov a je vám umožnené použivať ju len pre tento účel! Nevyúživajte túto stránku k uverejňovaniu akéhokolvek materiálu ku ktorému nemáte legálne opravnenie, alebo nie ste jeho vlastníkom. Prevádzkovatel tejto stránky odmieta akúkolvek zodpovednosť za vami uverejnené odkazy alebo materiál v rozpore so zákonom! Akékolvek šírenie autorsky chránených diel bez súhlasu autora je trestné!

V prípade najdenia nelegálneho obsahu nás prosím okamžite kontaktujte.

contatore visitewebsite counter

Odkazy: Internet, Vyšívané osušky, Vtipné tričká, Vtipné darčeky, Upload obrázkov
[ Doba načítania stránky: 0.3 sekúnd ] :: [ 14 dotazov ]
Powered by php.B.B. © php.B.B. Group © Best4you.sk 2007-2015