Nezvěstná / Absentia (2017) - download, online

LIVE STREAMINGNápoveda • Pravidlá fóra • Hľadať • Zoznam užívateľov • Kontakt • Moja IP • Môj profil • Výroba nožov • Stahuj z FastShare.cz • Prihlásenie
Nový youtuber showPayneOdmeny uživatelomRegistrácia • Väzenie • Nastavenia • Súkromné správy • Humorné darčeky pre každý okamih


TIP: Hrajte o skvělé ceny každý den (free spiny, mobily, tablety, PS4) v casinu Tipsport Vegas ››
IZMAEL.eu Tipsport Casino bonus 5 000 Kč

Nezvěstná / Absentia (2017)

 LinkChecker
                                                 Našli ste pravidlá porušujúci príspevok alebo nefunkčný odkaz? Nahláste ho tlačidlom:                 Zobraziť predchádzajúcu tému Zobraziť nasledujúcu tému
Autor Správa
sniper00
Mierne pokročilý



Založený: 06 september 2008
Príspevky: 414
Poďakovaní 12 v 11 Príspevkoch

PríspevokZaslal: Ne december 03, 2017 8:14 pm    Predmet: Nezvěstná / Absentia (2017) Odpovedať s citátom


Nezvěstná / Absentia (2017)



Doporučujeme: Sledujte športové prenosy naživo a zadarmo ?
Len registrovaní užívatelia môžu vidiet odkazy v tejto sekcii
Zaregistrujte sa alebo sa prihláste !





Free download link / Stiahnut zadarmo:

D:\euridika\Nezvestná (Absentia)\Nezvestna (Absentia) S01E01 Comeback.avi
General
Complete name : D:\euridika\Nezvestná (Absentia)\Nezvestna (Absentia) S01E01 Comeback.avi
Format : AVI
Format/Info : Audio Video Interleave
File size : 439 MiB
Duration : 48mn 26s
Overall bit rate mode : Variable
Overall bit rate : 1 266 Kbps
Writing library : VirtualDub build 32839/release
Video #0
ID : 0
Format : MPEG-4 Visual
Format profile : Advanced Simple@L5
Format settings, BVOP : 2
Format settings, QPel : No
Format settings, GMC : No warppoints
Format settings, Matrix : Default (H.263)
Muxing mode : Packed bitstream
Codec ID : XVID
Codec ID/Hint : XviD
Duration : 48mn 26s
Bit rate : 1 105 Kbps
Width : 720 pixels
Height : 404 pixels
Display aspect ratio : 16:9
Frame rate : 25.000 fps
Color space : YUV
Chroma subsampling : 4Plač0
Bit depth : 8 bits
Scan type : Progressive
Compression mode : Lossy
Bits/(Pixel*Frame) : 0.152
Stream size : 383 MiB (87%)
Writing library : XviD 67
Audio #1
ID : 1
Format : MPEG Audio
Format version : Version 1
Format profile : Layer 3
Mode : Joint stereo
Mode extension : MS Stereo
Codec ID : 55
Codec ID/Hint : MP3
Duration : 48mn 26s
Bit rate mode : Variable
Bit rate : 148 Kbps
Nominal bit rate : 160 Kbps
Channel(s) : 2 channels
Sampling rate : 48.0 KHz
Compression mode : Lossy
Stream size : 51.4 MiB (12%)
Alignment : Aligned on interleaves
Interleave, duration : 24 ms (0.60 video frame)
Interleave, preload duration : 496 ms
Writing library : LAME3.99r
Encoding settings : -m j -V 4 -q 2 -lowpass 17.5 --abr 160
Jazyk : CZ Dabing
TVRIP





Doporučujeme: Sledujte športové prenosy naživo a zadarmo ?
Len registrovaní užívatelia môžu vidiet odkazy v tejto sekcii
Zaregistrujte sa alebo sa prihláste !

Zobrazit informácie o autoroviOdoslať súkromnú správu
Zobraziť príspevky z predchádzajúcich:   
Prejsť na:   
Nemôžete pridávať nové témy do tejto sekcie.
Nemôžete odpovedať na témy v tejto sekcii.
Nemôžete upravovať svoje príspevky v tejto sekcii.
Nemôžete mazať svoje príspevky v tejto sekcii.
Nemôžete hlasovať v tomto fóre.

TOPlist

TOPlist TOPlist TOPlist

Upozornenie: Tato stránka služi výhradne ako diskúsne fórum prinášajúce množstvo informácií, rád, recenzií a návodov a je vám umožnené použivať ju len pre tento účel! Nevyúživajte túto stránku k uverejňovaniu akéhokolvek materiálu ku ktorému nemáte legálne opravnenie, alebo nie ste jeho vlastníkom. Prevádzkovatel tejto stránky odmieta akúkolvek zodpovednosť za vami uverejnené odkazy alebo materiál v rozpore so zákonom! Akékolvek šírenie autorsky chránených diel bez súhlasu autora je trestné!

V prípade najdenia nelegálneho obsahu nás prosím okamžite kontaktujte.

contatore visitewebsite counter

Odkazy: Internet, Vyšívané osušky, Vtipné tričká, Vtipné darčeky, Upload obrázkov
[ Doba načítania stránky: 0.1 sekúnd ] :: [ 12 dotazov ]
Powered by php.B.B. © php.B.B. Group © Best4you.sk 2007-2015