Grand Tour, The (2016-2017) - download, online

Nápoveda • Pravidlá fóra • Hľadať • Zoznam užívateľov • Kontakt • Moja IP • Môj profil • Bižútéria, hodinky, kabelky a iné • Stahuj z FastShare.cz • Prihlásenie
SLEDUJ SPORTOVE PRENOSYOdmeny uživatelomRegistrácia • Väzenie • Nastavenia • Súkromné správy • Humorné darčeky pre každý okamih • Top investičné zlato
Top zlaté a strieborné investičné zliatky a mince za výborne ceny s fyzickým dodaním klientovi


TIP: Ziskejte bonus 5.000 Kc do online casina Tipsport Vegas ›
Gold-silber.sk IZMAEL.eu
Tipsport Casino bonus 5.000 Kč Fortuna Casino bonus 25.000 Kč

Grand Tour, The (2016-2017)

 LinkChecker
                                                 Našli ste pravidlá porušujúci príspevok alebo nefunkčný odkaz? Nahláste ho tlačidlom:                 Zobraziť predchádzajúcu tému Zobraziť nasledujúcu tému
Autor Správa
freesby89
Prispievateľ



Založený: 01 február 2008
Príspevky: 215
Poďakovaní 2 v 2 Príspevkoch

PríspevokZaslal: Ut november 28, 2017 12:52 pm    Predmet: Grand Tour, The (2016-2017) Odpovedať s citátom


The Grand Tour (TV pořad) (2016-2017)
EN + CZ Tiluky

Šperky, hodinky, kabelky, peňaženky, šatky a iné doplnky.
Len registrovaní užívatelia môžu vidiet odkazy v tejto sekcii
Zaregistrujte sa alebo sa prihláste !



Oblíbené trio je zpět. Jeremy Clarkson, Richard Hammond a James May se vrací v novém seriálu The Grand Tour, který je nepřímým pokračováním jejich posledního působení v Top Gearu. Naše trojka se vydává na cestu po celém světě, kde testuje různá auta, plní úkoly a především si užívají život jako "motoristi ve středním věku", kdy každou epizodu uvádí v jejich mobilním stanu.

JAZYK| En
TITULKY| En / Cz

VIDEO| MPEG4 Video (H264) 1280x720 23.976fps

AUDIO| DD+ 48000Hz 6ch 640kbps

ROK| 2016-2017
DÉLKA| 13x ~60min
ŽÁNR| Dokumentární / Sportovní

2 Séria:
Complete name: The.Grand.Tour.S02E02.720p.WEB.h264-SKGTV.mkv
Epizódy:
1. Past, Present or Future (Past, Present or Future)
2. The Falls Guys (The Falls Guys)
3. Bah humbug-atti (Bah humbug-atti)
4. Unscripted (Unscripted)
5. Up, Down and Round the Farm (Up, Down and Round the Farm)
6. Jaaaaaaaags (Jaaaaaaaags)
7. It's a Gas, Gas, Gas (It's a Gas, Gas, Gas)
8. Blasts from the Past (Blasts from the Past)
9. Breaking, badly (Breaking, badly) - tento diel este dodam zajtra by sa mala odvisielat :)

Info:
General
Complete name: The.Grand.Tour.S02E02.720p.WEB.h264-SKGTV.mkv
Format: Matroska
Format version: Version 4 / Version 2
File size: 2.34 GiB
Duration: 1h 10mn
Overall bit rate mode: Variable
Overall bit rate: 4 781 Kbps
Encoded date: UTC 2017-12-14 23:02:16
Writing application: mkvmerge v11.0.0 ( 'Alive' ) 64bit
Writing library: libebml v1.3.4 + libmatroska v1.4.5
DURATION: 01:08:40.320000000
NUMBER_OF_FRAMES: 1391
NUMBER_OF_BYTES: 50895
_STATISTICS_WRITING_APP: mkvmerge v11.0.0 ( 'Alive' ) 64bit
_STATISTICS_WRITING_DATE_UTC: 2017-12-14 23:02:16
_STATISTICS_TAGS: BPS DURATION NUMBER_OF_FRAMES NUMBER_OF_BYTES

Video
ID: 1
Format: AVC
Format/Info: Advanced Video Codec
Format profile: High@L3.1
Format settings, CABAC: Yes
Format settings, ReFrames: 5 frames
Codec ID: V_MPEG4/ISO/AVC
Duration: 1h 10mn
Bit rate mode: Variable
Bit rate: 4 045 Kbps
Maximum bit rate: 4 500 Kbps
Width: 1 280 pixels
Height: 720 pixels
Display aspect ratio: 16:9
Frame rate mode: Constant
Frame rate: 25.000 fps
Color space: YUV
Chroma subsampling: 4Plač0
Bit depth: 8 bits
Scan type: Progressive
Bits/(Pixel*Frame): 0.176
Stream size: 1.98 GiB (85%)
Default: Yes
Forced: No
Color range: Limited
Color primaries: BT.709
Transfer characteristics: BT.709
Matrix coefficients: BT.709

Audio
ID: 2
Format: E-AC-3
Format/Info: Audio Coding 3
Format settings, Endianness: Big
Codec ID: A_EAC3
Duration: 1h 10mn
Bit rate mode: Constant
Bit rate: 640 Kbps
Channel(s): 6 channels
Channel positions: Front: L C R, Side: L R, LFE
Sampling rate: 48.0 KHz
Compression mode: Lossy
Stream size: 321 MiB (13%)
Default: Yes
Forced: No

Text
ID: 3
Format: UTF-8
Codec ID: S_TEXT/UTF8
Codec ID/Info: UTF-8 Plain Text
Title : English [CC]
Default: No
Forced: No

Download:
Šperky, hodinky, kabelky, peňaženky, šatky a iné doplnky.
Len registrovaní užívatelia môžu vidiet odkazy v tejto sekcii
Zaregistrujte sa alebo sa prihláste !


Naposledy upravil freesby89 dňa Ne február 11, 2018 1:31 pm, celkom upravené 1 krát.

Zobrazit informácie o autoroviOdoslať súkromnú správu
freesby89
Prispievateľ



Založený: 01 február 2008
Príspevky: 215
Poďakovaní 2 v 2 Príspevkoch

PríspevokZaslal: Št február 01, 2018 2:56 pm    Predmet: Re: Grand Tour, The (2016-2017) Odpovedať s citátom
2 Séria
Zobrazit informácie o autoroviOdoslať súkromnú správu
Zobraziť príspevky z predchádzajúcich:   
Prejsť na:   
Nemôžete pridávať nové témy do tejto sekcie.
Nemôžete odpovedať na témy v tejto sekcii.
Nemôžete upravovať svoje príspevky v tejto sekcii.
Nemôžete mazať svoje príspevky v tejto sekcii.
Nemôžete hlasovať v tomto fóre.

TOPlist

TOPlist TOPlist TOPlist

Upozornenie: Tato stránka služi výhradne ako diskúsne fórum prinášajúce množstvo informácií, rád, recenzií a návodov a je vám umožnené použivať ju len pre tento účel! Nevyúživajte túto stránku k uverejňovaniu akéhokolvek materiálu ku ktorému nemáte legálne opravnenie, alebo nie ste jeho vlastníkom. Prevádzkovatel tejto stránky odmieta akúkolvek zodpovednosť za vami uverejnené odkazy alebo materiál v rozpore so zákonom! Akékolvek šírenie autorsky chránených diel bez súhlasu autora je trestné!

V prípade najdenia nelegálneho obsahu nás prosím okamžite kontaktujte.

contatore visitewebsite counter

Odkazy: Internet, Vyšívané osušky, Vtipné tričká, Vtipné darčeky, Upload obrázkov
[ Doba načítania stránky: 0.1 sekúnd ] :: [ 15 dotazov ]
Powered by php.B.B. © php.B.B. Group © Best4you.sk 2007-2018