Susedia (2006 - 2018) - download, online

Nápoveda • Pravidlá fóra • Hľadať • Zoznam užívateľov • Kontakt • Moja IP • Môj profil • Bižútéria, hodinky, kabelky a iné • Stahuj z FastShare.cz • Prihlásenie
SLEDUJ SPORTOVE PRENOSYOdmeny uživatelomRegistrácia • Väzenie • Nastavenia • Súkromné správy • Humorné darčeky pre každý okamih • Top investičné zlato
Top zlaté a strieborné investičné zliatky a mince za výborne ceny s fyzickým dodaním klientovi


TIP: Ziskejte bonus 5.000 Kc do online casina Tipsport Vegas ›
Gold-silber.sk IZMAEL.eu
Tipsport Casino bonus 5.000 Kč Fortuna Casino bonus 25.000 Kč

Susedia (2006 - 2018)

 LinkChecker
                                                 Našli ste pravidlá porušujúci príspevok alebo nefunkčný odkaz? Nahláste ho tlačidlom:                 Zobraziť predchádzajúcu tému Zobraziť nasledujúcu tému
Autor Správa
freesby89
Prispievateľ



Založený: 01 február 2008
Príspevky: 215
Poďakovaní 2 v 2 Príspevkoch

PríspevokZaslal: Ut január 02, 2018 11:22 pm    Predmet: Susedia (2006 - 2018) Odpovedať s citátom




Susedia - Séria 4 (2018)


Komedie
Slovensko, 2018

Režie: Peter Marcin, Miloslav Volný
Scénář: Andy Kraus
Hrají: Andy Kraus, Peter Marcin, Viki Ráková, Zuzana Tlučková, František Kovár, Marta Sládečková, Karol Horváth


Šperky, hodinky, kabelky, peňaženky, šatky a iné doplnky.
Len registrovaní užívatelia môžu vidiet odkazy v tejto sekcii
Zaregistrujte sa alebo sa prihláste !



Epizody

Sťahovanie (S04E01)
Profesor (alebo Lászlo pomáha) (S04E02)
Výročník (S04E03)
Kandidát (S04E04)
Voľby (S04E05)
Mamička (S04E06)
Valentín (S04E07)
Epizoda 8 (S04E08)
Epizoda 9 (S04E09)
Epizoda 10 (S04E10)



Jazyk: Svk
Titulky: Nie

Susedia.S04E01.720p.WEB-DL.AAC.H264-InitHD.mkv
Format: Matroska
Format version: Version 4 / Version 2
File size: 436 MiB
Duration: 32 min 42 s
Overall bit rate: 1 863 kb/s

Video
ID: 1
Format: AVC
Format/Info: Advanced Video Codec
Format profile: Baseline@L3.1
Format settings: 5 Ref Frames
Format settings, CABAC: No
Format settings, RefFrames: 5 frames
Codec ID: V_MPEG4/ISO/AVC
Duration: 32 min 42 s
Bit rate: 1 696 kb/s
Width: 1 280 pixels
Height: 720 pixels
Display aspect ratio: 16:9
Frame rate mode: Constant
Frame rate: 24.000 FPS
Color space: YUV
Chroma subsampling: 4Plač0
Bit depth: 8 bits
Scan type: Progressive
Bits/(Pixel*Frame): 0.077
Stream size: 396 MiB (91%)
Default: Yes
Forced: No

Audio
ID: 2
Format: AAC
Format/Info: Advanced Audio Codec
Format profile: LC
Codec ID: A_AAC-2
Duration: 32 min 42 s
Bit rate: 165 kb/s
Channel(s): 2 channels
Channel positions: Front: L R
Sampling rate: 48.0 kHz
Frame rate: 46.875 FPS (1024 SPF)
Compression mode: Lossy
Stream size: 38.7 MiB (9%)
Default: Yes
Forced: No

Šperky, hodinky, kabelky, peňaženky, šatky a iné doplnky.
Len registrovaní užívatelia môžu vidiet odkazy v tejto sekcii
Zaregistrujte sa alebo sa prihláste !



// upravené podľa pravidiel
// Asgard

Zobrazit informácie o autoroviOdoslať súkromnú správu
freesby89
Prispievateľ



Založený: 01 február 2008
Príspevky: 215
Poďakovaní 2 v 2 Príspevkoch

PríspevokZaslal: Pi február 09, 2018 9:05 pm    Predmet: Re: Susedia (2006 - 2018) Odpovedať s citátom
pridane casti
Zobrazit informácie o autoroviOdoslať súkromnú správu
Zobraziť príspevky z predchádzajúcich:   
Prejsť na:   
Nemôžete pridávať nové témy do tejto sekcie.
Nemôžete odpovedať na témy v tejto sekcii.
Nemôžete upravovať svoje príspevky v tejto sekcii.
Nemôžete mazať svoje príspevky v tejto sekcii.
Nemôžete hlasovať v tomto fóre.

TOPlist

TOPlist TOPlist TOPlist

Upozornenie: Tato stránka služi výhradne ako diskúsne fórum prinášajúce množstvo informácií, rád, recenzií a návodov a je vám umožnené použivať ju len pre tento účel! Nevyúživajte túto stránku k uverejňovaniu akéhokolvek materiálu ku ktorému nemáte legálne opravnenie, alebo nie ste jeho vlastníkom. Prevádzkovatel tejto stránky odmieta akúkolvek zodpovednosť za vami uverejnené odkazy alebo materiál v rozpore so zákonom! Akékolvek šírenie autorsky chránených diel bez súhlasu autora je trestné!

V prípade najdenia nelegálneho obsahu nás prosím okamžite kontaktujte.

contatore visitewebsite counter

Odkazy: Internet, Vyšívané osušky, Vtipné tričká, Vtipné darčeky, Upload obrázkov
[ Doba načítania stránky: 0.1 sekúnd ] :: [ 15 dotazov ]
Powered by php.B.B. © php.B.B. Group © Best4you.sk 2007-2018