Zhasni a zemřeš / Nezhasínaj! / Lights Out (2016) - download, online

Nápoveda • Pravidlá fóra • Hľadať • Zoznam užívateľov • Kontakt • Moja IP • Môj profil • Bižútéria, hodinky, kabelky a iné • Stahuj z FastShare.cz • Prihlásenie
SLEDUJ SPORTOVE PRENOSYOdmeny uživatelomRegistrácia • Väzenie • Nastavenia • Súkromné správy • Humorné darčeky pre každý okamih • Top investičné zlato
Top zlaté a strieborné investičné zliatky a mince za výborne ceny s fyzickým dodaním klientovi


TIP: Ziskejte bonus 5.000 Kc do online casina Tipsport Vegas ›
Gold-silber.sk IZMAEL.eu
Tipsport Casino bonus 5.000 Kč Fortuna Casino bonus 25.000 Kč

Zhasni a zemřeš / Nezhasínaj! / Lights Out (2016)

 LinkChecker
                                                 Našli ste pravidlá porušujúci príspevok alebo nefunkčný odkaz? Nahláste ho tlačidlom:                 Zobraziť predchádzajúcu tému Zobraziť nasledujúcu tému
Autor Správa
miki7811
Profesionál



Založený: 28 september 2009
Príspevky: 2638
Poďakovaní 100 v 49 Príspevkoch

PríspevokZaslal: Ne október 23, 2016 11:13 am    Predmet: Zhasni a zemřeš / Nezhasínaj! / Lights Out (2016) Odpovedať s citátom



Zhasni a zemřeš / Nezhasínaj! / Lights Out (2016)



Horor
USA, 2016, 81 min


Režie: David F. Sandberg
Scénář: Eric Heisserer
Kamera: Marc Spicer
Hudba: Benjamin Wallfisch
Hrají: Teresa Palmer, Maria Bello, Billy Burke, Alexander DiPersia, Emily Alyn Lind, Alicia Vela-Bailey, Gabriel Bateman, Lotta Losten,


Šperky, hodinky, kabelky, peňaženky, šatky a iné doplnky.
Len registrovaní užívatelia môžu vidiet odkazy v tejto sekcii
Zaregistrujte sa alebo sa prihláste !



Když Rebecca odešla z domova, myslela si, že za sebou nechala i své strachy z dětství. Když v době dospívání zhasla, nebyla si nikdy úplně jistá, co je skutečné a co není ... a nyní její bratříček Martin prožívá stejně nevysvětlitelné a děsivé události, které kdysi vystavovaly zkouškám její příčetnost a ohrožovaly její bezpečnost. Znovu se objevila děsivá bytost tajemně propojená s její matkou Sophií. Ale tentokrát, s tím, jak se Rebecca přibližuje k odhalení pravdy, je třeba si přiznat, že životy všech jsou v ohrožení... jakmile se zhasnou světla.





Lights.Out.2016.720p.BluRay.x264.CZ.MiKi
Jazyk : CZ 2.0 AC3 / EN 5.1 DTS
Titulky : CZ Forced / CZ / SK / EN

Format : Matroska
Format version : Version 4 / Version 2
File size : 5.44 GiB
Duration : 1h 20mn
Overall bit rate : 9 615 Kbps

Video
ID : 1
Format : AVC
Format/Info : Advanced Video Codec
Format profile : High@L4.1
Format settings, CABAC : Yes
Format settings, ReFrames : 12 frames
Codec ID : V_MPEG4/ISO/AVC
Duration : 1h 20mn
Bit rate : 7 691 Kbps
Width : 1 280 pixels
Height : 534 pixels
Display aspect ratio : 2.40:1
Frame rate mode : Constant
Frame rate : 23.976 fps
Color space : YUV
Chroma subsampling : 4Plač0
Bit depth : 8 bits
Scan type : Progressive
Bits/(Pixel*Frame) : 0.469
Stream size : 4.35 GiB (80%)
Writing library : x264 core 148 r2721kMod 72d53ab

Language : English
Default : Yes
Forced : No

Audio #1
ID : 2
Format : AC-3
Format/Info : Audio Coding 3
Mode extension : CM (complete main)
Format settings, Endianness : Big
Codec ID : A_AC3
Duration : 1h 20mn
Bit rate mode : Constant
Bit rate : 224 Kbps
Channel(s) : 2 channels
Channel positions : Front: L R
Sampling rate : 48.0 KHz
Bit depth : 16 bits
Compression mode : Lossy
Stream size : 130 MiB (2%)
Title : CZ
Language : Czech
Default : Yes
Forced : No

Audio #2
ID : 3
Format : DTS
Format/Info : Digital Theater Systems
Mode : 16
Format settings, Endianness : Big
Codec ID : A_DTS
Duration : 1h 20mn
Bit rate mode : Constant
Bit rate : 1 509 Kbps
Channel(s) : 6 channels
Channel positions : Front: L C R, Side: L R, LFE
Sampling rate : 48.0 KHz
Bit depth : 24 bits
Compression mode : Lossy
Stream size : 874 MiB (16%)
Title : EN
Language : English
Default : No
Forced : No

Text #1
ID : 4
Format : UTF-8
Codec ID : S_TEXT/UTF8
Codec ID/Info : UTF-8 Plain Text
Title : CZ Forced
Language : Czech
Default : Yes
Forced : No

Text #2
ID : 5
Format : UTF-8
Codec ID : S_TEXT/UTF8
Codec ID/Info : UTF-8 Plain Text
Title : CZ
Language : Czech
Default : No
Forced : No

Text #3
ID : 6
Format : UTF-8
Codec ID : S_TEXT/UTF8
Codec ID/Info : UTF-8 Plain Text
Title : SK
Language : Slovak
Default : No
Forced : No

Text #4
ID : 7
Format : UTF-8
Codec ID : S_TEXT/UTF8
Codec ID/Info : UTF-8 Plain Text
Title : EN
Language : English
Default : No
Forced : No

Text #5
ID : 8
Format : UTF-8
Codec ID : S_TEXT/UTF8
Codec ID/Info : UTF-8 Plain Text
Title : SDH
Language : English
Default : No
Forced : No

Šperky, hodinky, kabelky, peňaženky, šatky a iné doplnky.
Len registrovaní užívatelia môžu vidiet odkazy v tejto sekcii
Zaregistrujte sa alebo sa prihláste !


No Pass



// Nefunčné linky, prípadne príspevky odstránené
// Asgard

Zobrazit informácie o autoroviOdoslať súkromnú správu
maranello
Profesionál



Založený: 27 august 2007
Príspevky: 1445
Poďakovaní 234 v 209 Príspevkoch

PríspevokZaslal: Ne október 23, 2016 4:34 pm    Predmet: Zhasni a zemřeš / Nezhasínaj! / Lights Out (2016) Odpovedať s citátom




Zhasni a zemřeš / Nezhasínaj! / Lights Out (2016)



Horor
USA, 2016, 81 min


Režie: David F. Sandberg
Scénář: Eric Heisserer
Kamera: Marc Spicer
Hudba: Benjamin Wallfisch
Hrají: Teresa Palmer, Maria Bello, Billy Burke, Alexander DiPersia, Emily Alyn Lind, Alicia Vela-Bailey, Gabriel Bateman, Lotta Losten,




Šperky, hodinky, kabelky, peňaženky, šatky a iné doplnky.
Len registrovaní užívatelia môžu vidiet odkazy v tejto sekcii
Zaregistrujte sa alebo sa prihláste !



Když Rebecca odešla z domova, myslela si, že za sebou nechala i své strachy z dětství. Když v době dospívání zhasla, nebyla si nikdy úplně jistá, co je skutečné a co není ... a nyní její bratříček Martin prožívá stejně nevysvětlitelné a děsivé události, které kdysi vystavovaly zkouškám její příčetnost a ohrožovaly její bezpečnost. Znovu se objevila děsivá bytost tajemně propojená s její matkou Sophií. Ale tentokrát, s tím, jak se Rebecca přibližuje k odhalení pravdy, je třeba si přiznat, že životy všech jsou v ohrožení... jakmile se zhasnou světla.









Velikost souboru : 1,74 GiB
Duration/String : 1h 20mn

Video
Formát : AVC
Format_Profile : High@L4.1
Format_Settings_CABAC/String : Ano
Format_Settings_RefFrames/String : 5 frame
CodecID : V_MPEG4/ISO/AVC
Duration/String : 1h 20mn
Bit rate : 2 850 Kbps
Šířka : 1 920 pixely
Výška : 800 pixely
Frame rate : 23,976 (24000/1001) fps

Audio
Formát : AC-3
Kanál(y) : 2 kanály
Channel positions : Front: L R
Sampling rate : 48,0 KHz
Jazyk : Czech

Šperky, hodinky, kabelky, peňaženky, šatky a iné doplnky.
Len registrovaní užívatelia môžu vidiet odkazy v tejto sekcii
Zaregistrujte sa alebo sa prihláste !






Velikost souboru : 1,78 GiB
Duration/String : 1h 20mn
Celkový BitRate : 3 141 Kbps

Video
Formát : AVC
Bit rate : 2 500 Kbps
Šířka : 1 920pixely
Výška : 800pixely

Frame rate : 23,976 fps

Audio
Formát : AC-3
Bit rate : 640 Kbps
Kanál(y) : 6 kanály
Channel positions : Front: L C R, Side: L R, LFE
Sampling rate : 48,0 KHz
BitDepth/String : 16 bits
Jazyk : Czech

Titulky FULL + FORCED
Jazyk : Czech
Jazyk : Slovak
Jazyk : English

Šperky, hodinky, kabelky, peňaženky, šatky a iné doplnky.
Len registrovaní užívatelia môžu vidiet odkazy v tejto sekcii
Zaregistrujte sa alebo sa prihláste !







Velikost souboru : 8,03 GiB
Duration/String : 1h 20mn
Celkový BitRate : 14,2 Mbps

Video
Formát : AVC
BitRate_Nominal/String : 10,1 Mbps
Šířka : 1 920pixely
Výška : 800pixely

Frame rate : 23,976 fps

Audio #1
Formát : AC-3
Bit rate : 640 Kbps
Kanál(y) : 6 kanály
Channel positions : Front: L C R, Side: L R, LFE
Sampling rate : 48,0 KHz
BitDepth/String : 16 bits
Jazyk : Czech

Audio #2
Formát : DTS
Bit rate : 1 509 Kbps
Kanál(y) : 6 kanály
Channel positions : Front: L C R, Side: L R, LFE
Sampling rate : 48,0 KHz
BitDepth/String : 24 bits
Jazyk : English

Titulky
Jazyk : Czech
Jazyk : English[/b][/color]



Šperky, hodinky, kabelky, peňaženky, šatky a iné doplnky.
Len registrovaní užívatelia môžu vidiet odkazy v tejto sekcii
Zaregistrujte sa alebo sa prihláste !






// Nefunčné linky, prípadne príspevky odstránené
// Asgard


Naposledy upravil maranello dňa St september 20, 2017 6:41 pm, celkom upravené 3 krát.

Zobrazit informácie o autoroviOdoslať súkromnú správu
lepin
Profesionál



Založený: 23 február 2008
Príspevky: 6843
Poďakovaní 188 v 162 Príspevkoch

PríspevokZaslal: Ne december 04, 2016 11:26 am    Predmet: Zhasni a zemřeš / Nezhasínaj! / Lights Out (2016) Odpovedať s citátom



Zhasni a zemřeš / Nezhasínaj! / Lights Out (2016)



Horor
USA, 2016, 81 min


Režie: David Sandberg
Scénář: Eric Heisserer
Kamera: Marc Spicer
Hudba: Benjamin Wallfisch
Hrají: Teresa Palmer, Maria Bello, Billy Burke, Alexander DiPersia, Emily Alyn Lind, Alicia Vela-Bailey, Gabriel Bateman, Lotta Losten, Andi Osho, Rolando Boyce, Maria Russell, Elizabeth Pan, Amiah Miller, Ava Cantrell

Šperky, hodinky, kabelky, peňaženky, šatky a iné doplnky.
Len registrovaní užívatelia môžu vidiet odkazy v tejto sekcii
Zaregistrujte sa alebo sa prihláste !



Když Rebecca odešla z domova, myslela si, že za sebou nechala i své strachy z dětství. Když v době dospívání zhasla, nebyla si nikdy úplně jistá, co je skutečné a co není ... a nyní její bratříček Martin prožívá stejně nevysvětlitelné a děsivé události, které kdysi vystavovaly zkouškám její příčetnost a ohrožovaly její bezpečnost. Znovu se objevila děsivá bytost tajemně propojená s její matkou Sophií. Ale tentokrát, s tím, jak se Rebecca přibližuje k odhalení pravdy, je třeba si přiznat, že životy všech jsou v ohrožení... jakmile se zhasnou světla.




Jazyk: CZ, EN
Titulky: CZ forced, CZ full, EN [/b]


Lights.Out.2016.1080p.BluRay.DTS.x264-SbR.CZ.mkv
Formát : Matroska
Format_Version: Version 4 / Version 2
Velikost souboru: 11,1 GiB
Duration/String: 1 h 20 min
Celkový BitRate: 19,6 Mb/s

Video
ID: 1
Formát: AVC
Formát/: Advanced Video Codec
Format_Profile: High@L4.1
Format_Settings_CABAC/String: Ano
Format_Settings_RefFrames/String: 5 frame
CodecID: V_MPEG4/ISO/AVC
Duration/String: 1 h 20 min
Bit rate: 17,5 Mb/s
Šířka: 1 920pixely
Výška: 800pixely
Poměr stran: 2,40:1
Frame rate: 23,976 (24000/1001) FPS
ColorSpace: YUV
ChromaSubsampling/String: 4Plač0
BitDepth/String: 8 bits
ScanType/String: Progressive
Bits/(Pixel*Frame): 0.474
StreamSize/String: 9,88 GiB (89%)

Jazyk: English
Default: Ano
Forced: Ne
colour_range: Limited
colour_primaries: BT.709
transfer_characteristics: BT.709
matrix_coefficients: BT.709

Audio #1
ID: 2
Formát: AC-3
Formát/: Audio Coding 3
Format_Settings_ModeExtension: CM (complete main)
Format_Settings_Endianness: Big
CodecID: A_AC3
Duration/String: 1 h 20 min
Bit rate: 640 kb/s
Kanál(y): 6 kanály
Jazyk: Czech
Default: Ano
Forced: Ne

Audio #2
ID: 3
Formát: DTS
Formát/: Digital Theater Systems
Format_Settings_Mode: 16
Format_Settings_Endianness: Big
CodecID: A_DTS
Duration/String: 1 h 20 min
Bit rate: 1 509 kb/s
Kanál(y): 6 kanály
Jazyk: English
Default: Ne
Forced: Ne

Text #1
ID: 4
Formát: UTF-8
CodecID: S_TEXT/UTF8
/: UTF-8 Plain Text
Duration/String: 1 h 9 min
Bit rate: 0 b/s
Count of elements: 5
StreamSize/String: 134 Bytes (0%)
Jazyk: Czech
Default: Ano
Forced: Ano

Text #2
ID: 5
Formát: UTF-8
CodecID: S_TEXT/UTF8
/: UTF-8 Plain Text
Duration/String: 1 h 19 min
Bit rate: 31 b/s
Count of elements: 818
StreamSize/String: 18,2 KiB (0%)
Jazyk: Czech
Default: Ne
Forced: Ne

Text #3
ID: 6
Formát: UTF-8
CodecID: S_TEXT/UTF8
/: UTF-8 Plain Text
Duration/String: 1 h 20 min
Bit rate: 39 b/s
Count of elements: 966
StreamSize/String: 23,2 KiB (0%)
Titul: SDH
Jazyk: English
Default: Ne
Forced: Ne

Text #4
ID: 7
Formát: UTF-8
CodecID: S_TEXT/UTF8
/: UTF-8 Plain Text
Duration/String: 1 h 19 min
Bit rate: 33 b/s
Count of elements: 792
StreamSize/String: 19,4 KiB (0%)
Jazyk: English
Default: Ne
Forced: Ne

Bez HESLA


Šperky, hodinky, kabelky, peňaženky, šatky a iné doplnky.
Len registrovaní užívatelia môžu vidiet odkazy v tejto sekcii
Zaregistrujte sa alebo sa prihláste !



// Nefunčné linky, prípadne príspevky odstránené
// Asgard

Zobrazit informácie o autoroviOdoslať súkromnú správu
sniper00
Mierne pokročilý



Založený: 06 september 2008
Príspevky: 344
Poďakovaní 13 v 12 Príspevkoch

PríspevokZaslal: Pi november 17, 2017 2:49 pm    Predmet: Zhasni a zemřeš / Nezhasínaj! / Lights Out (2016) Odpovedať s citátom



Zhasni a zemřeš / Nezhasínaj! / Lights Out (2016)




Šperky, hodinky, kabelky, peňaženky, šatky a iné doplnky.
Len registrovaní užívatelia môžu vidiet odkazy v tejto sekcii
Zaregistrujte sa alebo sa prihláste !




Zhasni.a.zemres.2016.BluRay.720p.DD.5.1.CZ.EN.x264-DbH.mkv

Format : Matroska
Format version : Version 4 / Version 2
File size : 5.04 GiB
Duration : 1h 20mn
Overall bit rate : 8 920 Kbps

Video #1
ID : 1
Format : AVC
Format/Info : Advanced Video Codec
Format profile : High@L4.1
Format settings, CABAC : Yes
Format settings, ReFrames : 12 frames
Codec ID : V_MPEG4/ISO/AVC
Duration : 1h 20mn
Bit rate : 7 462 Kbps
Width : 1 280 pixels
Height : 534 pixels
Display aspect ratio : 2.40:1
Frame rate : 23.976 fps
Color space : YUV
Chroma subsampling : 4Plač0
Bit depth : 8 bits
Scan type : Progressive
Bits/(Pixel*Frame) : 0.455
Stream size : 4.22 GiB (84%)
Language : English
Default : Yes
Forced : No

Audio #2
ID : 2
Format : AC-3
Format/Info : Audio Coding 3
Mode extension : CM (complete main)
Format settings, Endianness : Big
Codec ID : A_AC3
Duration : 1h 20mn
Bit rate mode : Constant
Bit rate : 640 Kbps
Channel(s) : 6 channels
Channel positions : Front: L C R, Side: L R, LFE
Sampling rate : 48.0 KHz
Bit depth : 16 bits
Compression mode : Lossy
Stream size : 371 MiB (7%)
Title : CZ DD 5.1 @ 640 Kbps BluRay
Language : Czech
Default : Yes
Forced : No

Audio #3
ID : 3
Format : AC-3
Format/Info : Audio Coding 3
Mode extension : CM (complete main)
Format settings, Endianness : Big
Codec ID : A_AC3
Duration : 1h 20mn
Bit rate mode : Constant
Bit rate : 640 Kbps
Channel(s) : 6 channels
Channel positions : Front: L C R, Side: L R, LFE
Sampling rate : 48.0 KHz
Bit depth : 16 bits
Compression mode : Lossy
Stream size : 371 MiB (7%)
Title : EN DD 5.1 @ 640 Kbps BluRay
Language : English
Default : No
Forced : No

Text #4
ID : 4
Format : UTF-8
Codec ID : S_TEXT/UTF8
Codec ID/Info : UTF-8 Plain Text
Title : CZ forced @ srt BLuRay
Language : Czech
Default : Yes
Forced : No

Text #5
ID : 5
Format : UTF-8
Codec ID : S_TEXT/UTF8
Codec ID/Info : UTF-8 Plain Text
Title : CZ full @ srt BluRay
Language : Czech
Default : No
Forced : No

Text #6
ID : 6
Format : PGS
Muxing mode : zlib
Codec ID : S_HDMV/PGS
Codec ID/Info : The same subtitle format used on BDs/HD-DVDs
Title : CZ forced @ PGS BluRay
Language : Czech
Default : No
Forced : No

Text #7
ID : 7
Format : PGS
Muxing mode : zlib
Codec ID : S_HDMV/PGS
Codec ID/Info : The same subtitle format used on BDs/HD-DVDs
Title : CZ full @ PGS BluRay
Language : Czech
Default : No
Forced : No
Jazyk : CZ Dabing


Šperky, hodinky, kabelky, peňaženky, šatky a iné doplnky.
Len registrovaní užívatelia môžu vidiet odkazy v tejto sekcii
Zaregistrujte sa alebo sa prihláste !

Zobrazit informácie o autoroviOdoslať súkromnú správu
nick99112
Profesionál



Založený: 24 apríl 2012
Príspevky: 1280
Poďakovaní 115 v 44 Príspevkoch

PríspevokZaslal: St máj 16, 2018 4:50 pm    Predmet: Zhasni a zemřeš / Nezhasínaj! / Lights Out (2016) Odpovedať s citátom
Zhasni a zemřeš / Nezhasínaj! / Lights Out (2016)





CSFD:
Šperky, hodinky, kabelky, peňaženky, šatky a iné doplnky.
Len registrovaní užívatelia môžu vidiet odkazy v tejto sekcii
Zaregistrujte sa alebo sa prihláste !



Horor
USA, 2016


Režie: David F. Sandberg
Scénář: Eric Heisserer
Kamera: Marc Spicer
Hudba: Benjamin Wallfisch
Hrají: Teresa Palmer, Maria Bello, Billy Burke, Alexander DiPersia, Emily Alyn Lind, Alicia Vela-Bailey, Gabriel Bateman, Lotta Losten, Andi Osho, Rolando Boyce, Maria Russell, Elizabeth Pan, Amiah Miller, Ava Cantrell


Kvalita:

Video:
1.49 Gb.
AVI
Dĺžka: 01:20:57
Rozlišení: 1920x800
Poměr stran pixelů: 1
Kodek: AVC
Počet snímků za sekundu: 23.976
Bitrate: 2.5 Mbps

Audio
Kodek: MPEG-1 Audio layer 3
Bitrate: 128 kbps
Kanály: 2


Download:


FastShare.cz
Šperky, hodinky, kabelky, peňaženky, šatky a iné doplnky.
Len registrovaní užívatelia môžu vidiet odkazy v tejto sekcii
Zaregistrujte sa alebo sa prihláste !



Ulož.to

Šperky, hodinky, kabelky, peňaženky, šatky a iné doplnky.
Len registrovaní užívatelia môžu vidiet odkazy v tejto sekcii
Zaregistrujte sa alebo sa prihláste !



SuperbShare

Šperky, hodinky, kabelky, peňaženky, šatky a iné doplnky.
Len registrovaní užívatelia môžu vidiet odkazy v tejto sekcii
Zaregistrujte sa alebo sa prihláste !



BEZ HESLA


// upravené podľa pravidiel
// Asgard

Zobrazit informácie o autoroviOdoslať súkromnú správu
Rozdelené: St máj 16, 2018 10:31 pm, spojil Asgard
Z témy Zhasni a zemřeš / Nezhasínaj! / Lights Out (2016) (Filmy HD - SK/CZ dabing)
Zobraziť príspevky z predchádzajúcich:   
Prejsť na:   
Nemôžete pridávať nové témy do tejto sekcie.
Nemôžete odpovedať na témy v tejto sekcii.
Nemôžete upravovať svoje príspevky v tejto sekcii.
Nemôžete mazať svoje príspevky v tejto sekcii.
Nemôžete hlasovať v tomto fóre.

TOPlist

TOPlist TOPlist TOPlist

Upozornenie: Tato stránka služi výhradne ako diskúsne fórum prinášajúce množstvo informácií, rád, recenzií a návodov a je vám umožnené použivať ju len pre tento účel! Nevyúživajte túto stránku k uverejňovaniu akéhokolvek materiálu ku ktorému nemáte legálne opravnenie, alebo nie ste jeho vlastníkom. Prevádzkovatel tejto stránky odmieta akúkolvek zodpovednosť za vami uverejnené odkazy alebo materiál v rozpore so zákonom! Akékolvek šírenie autorsky chránených diel bez súhlasu autora je trestné!

V prípade najdenia nelegálneho obsahu nás prosím okamžite kontaktujte.

contatore visitewebsite counter

Odkazy: Internet, Vyšívané osušky, Vtipné tričká, Vtipné darčeky, Upload obrázkov
[ Doba načítania stránky: 0.4 sekúnd ] :: [ 22 dotazov ]
Powered by php.B.B. © php.B.B. Group © Best4you.sk 2007-2018