Chappaquiddick (2017) - download, online

Nápoveda • Pravidlá fóra • Hľadať • Zoznam užívateľov • Kontakt • Moja IP • Môj profil • Stahuj z FastShare.cz • Prihlásenie
SLEDUJ SPORTOVE PRENOSYSponzorské žrebovanieRegistrácia • Väzenie • Nastavenia • Súkromné správy • Humorné darčeky pre každý okamih


Pruzinky.sk TIP: Ziskejte bonus 5.000 Kc do online casina Tipsport Vegas ›
Multishare.cz TRU
IZMAEL.eu

Chappaquiddick (2017)

 LinkChecker
                                                 Našli ste pravidlá porušujúci príspevok alebo nefunkčný odkaz? Nahláste ho tlačidlom:                 Zobraziť predchádzajúcu tému Zobraziť nasledujúcu tému
Autor Správa
ponte753
Občasný prispievateľ



Založený: 08 október 2018
Príspevky: 49
Poďakovaní 0 v 0 Príspevkoch

PríspevokZaslal: Št november 08, 2018 10:15 pm    Predmet: Chappaquiddick (2017) Odpovedať s citátom


Chappaquiddick (2017)


Životopisný / Drama / Historický

USA, 2017, 107 min

Režie: John Curran
Scénář: Taylor Allen, Andrew Logan
Kamera: Maryse Alberti
Hudba: Garth Stevenson
Hrají: Kate Mara, Jason Clarke, Clancy Brown, Olivia Thirlby, Ed Helms, Bruce Dern, Jim Gaffigan, Taylor Nichols, John Fiore, Andria Blackman, Victor Warren, Lexie Roth
Producenti: Mark Ciardi, Chris Cowles, Chris Fenton
Střih: Keith Fraase
Scénografie: John P. Goldsmith

Senátor Ted Kennedy (Jason Clarke) z vlivného politického klanu sjel se svým vozem do vody u ostrova Chappaquiddick. Jeho spolujezdkyně, asistentka Mary Jo Kopechne (Kate Mara) se v autě ocitla v pasti a utopila se. Kennedy tehdy nezavolal policii, jel do hotelu, kde se opil, snažil se vytvořit si alibi s pomocí svého otce a zachránit tak svoji politickou kariéru.

Stavte si za 50€ úplne bez rizika. Keď netrafíte vrátime vám vklad
Len registrovaní užívatelia môžu vidiet odkazy v tejto sekcii
Zaregistrujte sa alebo sa prihláste !


Format
: Matroska
Format version : Version 4
File size : 2.03 GiB
Duration : 1 h 46 min
Overall bit rate : 2 724 kb/s

Video
Format : AVC
Format/Info : Advanced Video Codec
Format profile : High@L4.1
Format settings : CABAC / 4 Ref Frames
Format settings, CABAC : Yes
Format settings, ReFrames : 4 frames
Codec ID : V_MPEG4/ISO/AVC
Duration : 1 h 46 min
Bit rate : 2 500 kb/s
Width : 1 920 pixels
Height : 808 pixels

Display aspect ratio : 2.40:1
Frame rate mode : Constant
Frame rate : 23.976 (23976/1000) FPS

Audio
Format : AAC LC
Format/Info : Advanced Audio Codec Low Complexity
Codec ID : A_AAC-2
Duration : 1 h 46 min
Bit rate : 224 kb/s
Channel(s) : 6 channels
Channel layout : C L R Ls Rs LFE
Sampling rate : 48.0 kHz
Frame rate : 46.875 FPS (1024 SPF)
Compression mode : Lossy
Delay relative to video : -43 ms
Stream size : 171 MiB (8%)
Language : English

Text
ID : 3
Format : UTF-8
Codec ID : S_TEXT/UTF8
Codec ID/Info : UTF-8 Plain Text
Duration : 1 h 40 min
Bit rate : 75 b/s
Count of elements : 1483
Stream size : 55.5 KiB (0%)
Language : Czech

Stavte si za 50€ úplne bez rizika. Keď netrafíte vrátime vám vklad
Len registrovaní užívatelia môžu vidiet odkazy v tejto sekcii
Zaregistrujte sa alebo sa prihláste !


// , presunuté do správnej sekcie
// Asgard

Zobrazit informácie o autoroviOdoslať súkromnú správu
Presunuté: Št november 08, 2018 10:41 pm, presunul Asgard
Z Filmy - Bez dabingu do Filmy HD - Bez dabingu
maranello
Profesionál



Založený: 27 august 2007
Príspevky: 1690
Poďakovaní 237 v 193 Príspevkoch

PríspevokZaslal: So november 10, 2018 4:38 pm    Predmet: Chappaquiddick (2017) Odpovedať s citátom


Stavte si za 50€ úplne bez rizika. Keď netrafíte vrátime vám vklad
Len registrovaní užívatelia môžu vidiet odkazy v tejto sekcii
Zaregistrujte sa alebo sa prihláste !


Životopisný / Drama / Historický
USA, 2017, 107 min

Režie: John Curran
Scénář: Taylor Allen, Andrew Logan
Kamera: Maryse Alberti
Hudba: Garth Stevenson
Hrají: Kate Mara, Jason Clarke, Clancy Brown, Olivia Thirlby, Ed Helms, Bruce Dern

Senátor Ted Kennedy (Jason Clarke) z vlivného politického klanu sjel se svým vozem do vody u ostrova Chappaquiddick. Jeho spolujezdkyně, asistentka Mary Jo Kopechne (Kate Mara) se v autě ocitla v pasti a utopila se. Kennedy tehdy nezavolal policii, jel do hotelu, kde se opil, snažil se vytvořit si alibi s pomocí svého otce a zachránit tak svoji politickou kariéru.




File size : 4.37 GiB
Duration : 1 h 46 min
Overall bit rate : 5 861 kb/s

Video
Format : AVC
Format profile : High@L4.1
Format settings : CABAC / 5 Ref Frames
Codec ID : V_MPEG4/ISO/AVC
Bit rate : 4 353 kb/s
Width : 1 280 pixels
Height : 536 pixels
Display aspect ratio : 2.40:1
Frame rate : 23.976 (24000/1001) FPS


Audio
Format : DTS
Bit rate : 1 509 kb/s
Channel(s) : 6 channels
Channel positions : Front: L C R, Side: L R, LFE
Sampling rate : 48.0 kHz
Frame rate : 93.750 FPS (512 SPF)
Bit depth : 24 bits
Language : English

Titulky
Language : Slovak
Language : English


Stavte si za 50€ úplne bez rizika. Keď netrafíte vrátime vám vklad
Len registrovaní užívatelia môžu vidiet odkazy v tejto sekcii
Zaregistrujte sa alebo sa prihláste !




File size : 7.65 GiB
Duration : 1 h 46 min
Overall bit rate : 10.3 Mb/s


Video
Format : AVC
Format profile : High@L4.1
Format settings : CABAC / 5 Ref Frames
Codec ID : V_MPEG4/ISO/AVC
Bit rate : 8 753 kb/s
Width : 1 920 pixels
Height : 808 pixels
Display aspect ratio : 2.40:1
Frame rate : 23.976 (24000/1001) FPS


Audio
Format : DTS
Bit rate : 1 509 kb/s
Channel(s) : 6 channels
Channel positions : Front: L C R, Side: L R, LFE
Sampling rate : 48.0 kHz
Frame rate : 93.750 FPS (512 SPF)
Bit depth : 24 bits
Language : English

Titulky
Language : Slovak
Language : English


Stavte si za 50€ úplne bez rizika. Keď netrafíte vrátime vám vklad
Len registrovaní užívatelia môžu vidiet odkazy v tejto sekcii
Zaregistrujte sa alebo sa prihláste !

Zobrazit informácie o autoroviOdoslať súkromnú správu
Zobraziť príspevky z predchádzajúcich:   
Prejsť na:   
Nemôžete pridávať nové témy do tejto sekcie.
Nemôžete odpovedať na témy v tejto sekcii.
Nemôžete upravovať svoje príspevky v tejto sekcii.
Nemôžete mazať svoje príspevky v tejto sekcii.
Nemôžete hlasovať v tomto fóre.

TOPlist

TOPlist TOPlist TOPlist

Upozornenie: Tato stránka služi výhradne ako diskúsne fórum prinášajúce množstvo informácií, rád, recenzií a návodov a je vám umožnené použivať ju len pre tento účel! Nevyúživajte túto stránku k uverejňovaniu akéhokolvek materiálu ku ktorému nemáte legálne opravnenie, alebo nie ste jeho vlastníkom. Prevádzkovatel tejto stránky odmieta akúkolvek zodpovednosť za vami uverejnené odkazy alebo materiál v rozpore so zákonom! Akékolvek šírenie autorsky chránených diel bez súhlasu autora je trestné!

V prípade najdenia nelegálneho obsahu nás prosím okamžite kontaktujte.

contatore visitewebsite counter

Odkazy: Internet, Vyšívané osušky, Vtipné tričká, Vtipné darčeky, Upload obrázkov
[ Doba načítania stránky: 0.3 sekúnd ] :: [ 17 dotazov ]
Powered by php.B.B. © php.B.B. Group © Best4you.sk 2007-2018