Apokalypsa - Druhá svetová vojna / Apocalypse - La 2ème - download, online

Nápoveda • Pravidlá fóra • Hľadať • Zoznam užívateľov • Kontakt • Moja IP • Môj profil • Stahuj z FastShare.cz • Prihlásenie
Sponzorské žrebovanieRegistrácia • Väzenie • Nastavenia • Súkromné správy
468x60

Apokalypsa - Druhá svetová vojna / Apocalypse - La 2ème

 LinkChecker
                                                 Našli ste pravidlá porušujúci príspevok alebo nefunkčný odkaz? Nahláste ho tlačidlom:                 Zobraziť predchádzajúcu tému Zobraziť nasledujúcu tému
Autor Správa
Sonty
Mierne pokročilý



Založený: 01 apríl 2008
Príspevky: 460
Poďakovaní 16 v 5 Príspevkoch

PríspevokZaslal: Ut máj 03, 2022 10:59 am    Predmet: Apokalypsa - Druhá svetová vojna / Apocalypse - La 2&#23 Odpovedať s citátom


Apokalypsa - Druhá svetová vojna / Apocalypse - La 2ème Guerre Mondiale (2009)

Video/Zdroj: DTVRip
Jazyk: SK


CSFD / IMDB
Stavte si za 50€ úplne bez rizika. Keď netrafíte vrátime vám vklad
Len registrovaní užívatelia môžu vidiet odkazy v tejto sekcii
Zaregistrujte sa alebo sa prihláste !


INFO
Format : AVI
File size : 549 MiB
Duration : 52mn 1s
Overall bit rate : 1 475 Kbps

Video
Format : MPEG-4 Visual
Format profile : Advanced Simple@L5
Format settings, Matrix : Default (H.263)
Codec ID/Hint : XviD
Duration : 52mn 1s
Bit rate : 1 340 Kbps
Width : 640 pixels
Height : 352 pixels

Display aspect ratio : 16:9
Frame rate : 25.000 fps
Color space : YUV
Chroma subsampling : 4Plač0
Bit depth : 8 bits
Scan type : Progressive
Compression mode : Lossy
Bits/(Pixel*Frame) : 0.238
Stream size : 499 MiB (91%)

Audio
Format : MPEG Audio
Codec ID/Hint : MP3
Duration : 52mn 1s
Bit rate mode : Variable
Bit rate : 128 Kbps
Channel(s) : 2 channels
Sampling rate : 48.0 KHz
Compression mode : Lossy
Stream size : 45.6 MiB (8%)
Alignment : Aligned on interleaves
Interleave, duration : 24 ms (0.60 video frame)
Interleave, preload duration : 535 ms
Writing library : LAME3.98

FASTSHARE


Diel 01 - Agresia
Stavte si za 50€ úplne bez rizika. Keď netrafíte vrátime vám vklad
Len registrovaní užívatelia môžu vidiet odkazy v tejto sekcii
Zaregistrujte sa alebo sa prihláste !


Diel 02 - Útlak
Stavte si za 50€ úplne bez rizika. Keď netrafíte vrátime vám vklad
Len registrovaní užívatelia môžu vidiet odkazy v tejto sekcii
Zaregistrujte sa alebo sa prihláste !


Diel 03 - Šok
Stavte si za 50€ úplne bez rizika. Keď netrafíte vrátime vám vklad
Len registrovaní užívatelia môžu vidiet odkazy v tejto sekcii
Zaregistrujte sa alebo sa prihláste !


Diel 04 - Obkľúčenie
Stavte si za 50€ úplne bez rizika. Keď netrafíte vrátime vám vklad
Len registrovaní užívatelia môžu vidiet odkazy v tejto sekcii
Zaregistrujte sa alebo sa prihláste !


Diel 05 - Zovretie
Stavte si za 50€ úplne bez rizika. Keď netrafíte vrátime vám vklad
Len registrovaní užívatelia môžu vidiet odkazy v tejto sekcii
Zaregistrujte sa alebo sa prihláste !


Diel 06 - Peklo
Stavte si za 50€ úplne bez rizika. Keď netrafíte vrátime vám vklad
Len registrovaní užívatelia môžu vidiet odkazy v tejto sekcii
Zaregistrujte sa alebo sa prihláste !

Zobrazit informácie o autoroviOdoslať súkromnú správu
Zobraziť príspevky z predchádzajúcich:   
Prejsť na:   
Nemôžete pridávať nové témy do tejto sekcie.
Nemôžete odpovedať na témy v tejto sekcii.
Nemôžete upravovať svoje príspevky v tejto sekcii.
Nemôžete mazať svoje príspevky v tejto sekcii.
Nemôžete hlasovať v tomto fóre.

TOPlist

TOPlist TOPlist TOPlist

Upozornenie: Tato stránka služi výhradne ako diskúsne fórum prinášajúce množstvo informácií, rád, recenzií a návodov a je vám umožnené použivať ju len pre tento účel! Nevyúživajte túto stránku k uverejňovaniu akéhokolvek materiálu ku ktorému nemáte legálne opravnenie, alebo nie ste jeho vlastníkom. Prevádzkovatel tejto stránky odmieta akúkolvek zodpovednosť za vami uverejnené odkazy alebo materiál v rozpore so zákonom! Akékolvek šírenie autorsky chránených diel bez súhlasu autora je trestné!

V prípade najdenia nelegálneho obsahu nás prosím okamžite kontaktujte.

contatore visitewebsite counter

Odkazy: Internet, Vyšívané osušky, Vtipné tričká, Vtipné darčeky,
[ Doba načítania stránky: 0.1 sekúnd ] :: [ 13 dotazov ]
Powered by php.B.B. © php.B.B. Group © Best4you.sk 2007-2021