Éra samurajů: Bitva o Japonsko / Age of Samurai: Battle ...(2021) - download, online

Nápoveda • Pravidlá fóra • Hľadať • Zoznam užívateľov • Kontakt • Moja IP • Môj profil • Stahuj z FastShare.cz • Prihlásenie
Sponzorské žrebovanieRegistrácia • Väzenie • Nastavenia • Súkromné správy
468x60

Éra samurajů: Bitva o Japonsko / Age of Samurai: Battle ...(2021)

 LinkChecker
                                                 Našli ste pravidlá porušujúci príspevok alebo nefunkčný odkaz? Nahláste ho tlačidlom:                 Zobraziť predchádzajúcu tému Zobraziť nasledujúcu tému
Autor Správa
Sonty
Mierne pokročilý



Založený: 01 apríl 2008
Príspevky: 464
Poďakovaní 17 v 6 Príspevkoch

PríspevokZaslal: Pi jún 10, 2022 9:31 am    Predmet: Éra samurajů: Bitva o Japonsko / Age of Samurai: Battle ...( Odpovedať s citátom


Éra samurajů: Bitva o Japonsko / Age of Samurai: Battle for Japan (2021)

Video/Zdroj: WEB-DL 1080p
Audio: EN E-AC-3 5.1ch
Titulky: CZ, EN


CSFD / IMDB
Stavte si za 50€ úplne bez rizika. Keď netrafíte vrátime vám vklad
Len registrovaní užívatelia môžu vidiet odkazy v tejto sekcii
Zaregistrujte sa alebo sa prihláste !


INFO
Format : Matroska
Format version : Version 4
File size : 1.63 GiB
Duration : 42 min 48 s
Overall bit rate mode : Variable
Overall bit rate : 5 446 kb/s

Video
Format : AVC
Format profile : Main@L4
Format settings : CABAC / 3 Ref Frames
Format settings, CABAC : Yes
Format settings, Reference : 3 frames
Duration : 42 min 48 s
Bit rate mode : Variable
Bit rate : 4 870 kb/s
Maximum bit rate : 7 305 kb/s
Width : 1 920 pixels
Height : 1 080 pixels

Display aspect ratio : 16:9
Frame rate mode : Constant
Frame rate : 23.976 (24000/1001) FPS
Color space : YUV
Chroma subsampling : 4Plač0
Bit depth : 8 bits
Scan type : Progressive
Bits/(Pixel*Frame) : 0.098
Stream size : 1.44 GiB (88%)

Audio
Format : E-AC-3
Format/Info : Enhanced AC-3
Commercial name : Dolby Digital Plus
Duration : 42 min 48 s
Bit rate mode : Constant
Bit rate : 640 kb/s
Channel(s) : 6 channels
Channel layout : L R C LFE Ls Rs
Sampling rate : 48.0 kHz
Frame rate : 31.250 FPS (1536 SPF)
Compression mode : Lossy
Stream size : 196 MiB (12%)
Language : English
Default : Yes
Forced : No

Text #1
Format : UTF-8
Language : Czech
Default : Yes
Forced : No

Text #2
Format : UTF-8
Codec ID : S_TEXT/UTF8
Language : English
Default : No
Forced : No

Text #3
Format : UTF-8
Language : English
Default : No
Forced : No

FASTSHARE

Stavte si za 50€ úplne bez rizika. Keď netrafíte vrátime vám vklad
Len registrovaní užívatelia môžu vidiet odkazy v tejto sekcii
Zaregistrujte sa alebo sa prihláste !

Zobrazit informácie o autoroviOdoslať súkromnú správu
Zobraziť príspevky z predchádzajúcich:   
Prejsť na:   
Nemôžete pridávať nové témy do tejto sekcie.
Nemôžete odpovedať na témy v tejto sekcii.
Nemôžete upravovať svoje príspevky v tejto sekcii.
Nemôžete mazať svoje príspevky v tejto sekcii.
Nemôžete hlasovať v tomto fóre.

TOPlist

TOPlist TOPlist TOPlist

Upozornenie: Tato stránka služi výhradne ako diskúsne fórum prinášajúce množstvo informácií, rád, recenzií a návodov a je vám umožnené použivať ju len pre tento účel! Nevyúživajte túto stránku k uverejňovaniu akéhokolvek materiálu ku ktorému nemáte legálne opravnenie, alebo nie ste jeho vlastníkom. Prevádzkovatel tejto stránky odmieta akúkolvek zodpovednosť za vami uverejnené odkazy alebo materiál v rozpore so zákonom! Akékolvek šírenie autorsky chránených diel bez súhlasu autora je trestné!

V prípade najdenia nelegálneho obsahu nás prosím okamžite kontaktujte.

contatore visitewebsite counter

Odkazy: Internet, Vyšívané osušky, Vtipné tričká, Vtipné darčeky,
[ Doba načítania stránky: 0.1 sekúnd ] :: [ 12 dotazov ]
Powered by php.B.B. © php.B.B. Group © Best4you.sk 2007-2021