Falcon and the Winter Soldier, The / EN - download, online

Nápoveda • Pravidlá fóra • Hľadať • Zoznam užívateľov • Kontakt • Moja IP • Môj profil • Stahuj z FastShare.cz • Prihlásenie
Sponzorské žrebovanieRegistrácia • Väzenie • Nastavenia • Súkromné správy
468x60

Falcon and the Winter Soldier, The / EN

 LinkChecker
                                                 Našli ste pravidlá porušujúci príspevok alebo nefunkčný odkaz? Nahláste ho tlačidlom:                 Zobraziť predchádzajúcu tému Zobraziť nasledujúcu tému
Autor Správa
Sonty
Mierne pokročilý



Založený: 01 apríl 2008
Príspevky: 464
Poďakovaní 17 v 6 Príspevkoch

PríspevokZaslal: Pi jún 10, 2022 3:00 pm    Predmet: Falcon and the Winter Soldier, The / EN Odpovedať s citátom


Falcon and the Winter Soldier, The / EN

CSFD / IMDB
Stavte si za 50€ úplne bez rizika. Keď netrafíte vrátime vám vklad
Len registrovaní užívatelia môžu vidiet odkazy v tejto sekcii
Zaregistrujte sa alebo sa prihláste !


Video/Zdroj: WEB-DL 1080p
Audio: EN E-AC-3 JOC Dolby Digital Plus + Atmos 5.1ch
Titulky: CZ, EN


INFO
Format : Matroska
Format version : Version 4
File size : 2.50 GiB
Duration : 47 min 15 s
Overall bit rate mode : Variable
Overall bit rate : 7 559 kb/s

Video
Format : AVC
Format/Info : Advanced Video Codec
Format profile : High@L4
Format settings : CABAC / 4 Ref Frames
Format settings, CABAC : Yes
Format settings, Reference : 4 frames
Duration : 47 min 15 s
Bit rate mode : Variable
Bit rate : 6 789 kb/s
Maximum bit rate : 12.7 Mb/s
Width : 1 920 pixels
Height : 1 080 pixels

Display aspect ratio : 16:9
Frame rate mode : Constant
Frame rate : 24.000 FPS
Color space : YUV
Chroma subsampling : 4Plač0
Bit depth : 8 bits
Scan type : Progressive
Bits/(Pixel*Frame) : 0.136
Stream size : 2.24 GiB (90%)

Audio
Format : E-AC-3 JOC
Format/Info : Enhanced AC-3 with Joint Object Coding
Commercial name : Dolby Digital Plus with Dolby Atmos
Duration : 47 min 15 s
Bit rate mode : Constant
Bit rate : 768 kb/s
Channel(s) : 6 channels
Channel layout : L R C LFE Ls Rs
Sampling rate : 48.0 kHz
Frame rate : 31.250 FPS (1536 SPF)
Compression mode : Lossy
Stream size : 260 MiB (10%)
Language : English
Default : Yes
Forced : No
Complexity index : 16
Number of dynamic objects : 15
Bed channel count : 1 channel
Bed channel configuration : LFE

Text #1
Format : UTF-8
Language : Czech
Default : Yes
Forced : No

Text #2
Format : UTF-8
Language : English
Default : No
Forced : No

FASTSHARE

Stavte si za 50€ úplne bez rizika. Keď netrafíte vrátime vám vklad
Len registrovaní užívatelia môžu vidiet odkazy v tejto sekcii
Zaregistrujte sa alebo sa prihláste !


_________________________________________________________________

Video/Zdroj: WEB-DL 1080p
Audio: EN E-AC-3 JOC Dolby Digital Plus + Atmos 5.1ch
Titulky: CZ, EN


INFO
Format : Matroska
Format version : Version 4
File size : 5.08 GiB
Duration : 47 min 28 s
Overall bit rate : 15.3 Mb/s

Video
Format : AVC
Format/Info : Advanced Video Codec
Format profile : High@L4
Format settings : CABAC / 5 Ref Frames
Format settings, CABAC : Yes
Format settings, Reference : 5 frames
Duration : 47 min 28 s
Bit rate : 14.5 Mb/s
Width : 1 920 pixels
Height : 808 pixels
Display aspect ratio : 2.40:1
Frame rate mode : Constant
Frame rate : 24.000 FPS
Color space : YUV
Chroma subsampling : 4Plač0
Bit depth : 8 bits
Scan type : Progressive
Bits/(Pixel*Frame) : 0.390
Stream size : 4.82 GiB (95%)

Audio
Format : E-AC-3 JOC
Format/Info : Enhanced AC-3 with Joint Object Coding
Commercial name : Dolby Digital Plus with Dolby Atmos
Format settings : Dolby Surround EX
Duration : 47 min 28 s
Bit rate mode : Constant
Bit rate : 768 kb/s
Channel(s) : 6 channels
Channel layout : L R C LFE Ls Rs
Sampling rate : 48.0 kHz
Frame rate : 31.250 FPS (1536 SPF)
Compression mode : Lossy
Stream size : 261 MiB (5%)
Title : English
Language : English
Complexity index : 16
Number of dynamic objects : 15
Bed channel count : 1 channel
Bed channel configuration : LFE

Text #1
Format : UTF-8
Language : Czech
Default : Yes
Forced : No

Text #2
Format : UTF-8
Language : English
Default : No
Forced : No

FASTSHARE

Stavte si za 50€ úplne bez rizika. Keď netrafíte vrátime vám vklad
Len registrovaní užívatelia môžu vidiet odkazy v tejto sekcii
Zaregistrujte sa alebo sa prihláste !

Zobrazit informácie o autoroviOdoslať súkromnú správu
Sonty
Mierne pokročilý



Založený: 01 apríl 2008
Príspevky: 464
Poďakovaní 17 v 6 Príspevkoch

PríspevokZaslal: Pi jún 10, 2022 3:00 pm    Predmet: Odpovedať s citátom


Falcon and the Winter Soldier, The / EN

CSFD / IMDB
Stavte si za 50€ úplne bez rizika. Keď netrafíte vrátime vám vklad
Len registrovaní užívatelia môžu vidiet odkazy v tejto sekcii
Zaregistrujte sa alebo sa prihláste !


Video/Zdroj: WEB-DL 2160p HDR
Audio: EN E-AC-3 JOC Dolby Digital Plus + Atmos 5.1ch
Titulky: CZ forced, EN


INFO
Format : Matroska
Format version : Version 4
File size : 7.38 GiB
Duration : 47 min 15 s
Overall bit rate : 22.4 Mb/s

Video
Format : HEVC
Format/Info : High Efficiency Video Coding
Format profile : Main 10@L5@Main
Duration : 47 min 15 s
Bit rate : 21.6 Mb/s
Width : 3 840 pixels
Height : 2 160 pixels

Display aspect ratio : 16:9
Frame rate mode : Constant
Frame rate : 24.000 FPS
Color space : YUV
Chroma subsampling : 4Plač0
Bit depth : 10 bits
Bits/(Pixel*Frame) : 0.108
Stream size : 7.13 GiB (97%)
Color range : Limited
Color primaries : BT.2020
Transfer characteristics : PQ
Matrix coefficients : BT.2020 non-constant

Audio
Format : E-AC-3 JOC
Format/Info : Enhanced AC-3 with Joint Object Coding
Commercial name : Dolby Digital Plus with Dolby Atmos
Duration : 47 min 15 s
Bit rate mode : Constant
Bit rate : 768 kb/s
Channel(s) : 6 channels
Channel layout : L R C LFE Ls Rs
Sampling rate : 48.0 kHz
Frame rate : 31.250 FPS (1536 SPF)
Compression mode : Lossy
Stream size : 260 MiB (3%)
Language : English
Complexity index : 16
Number of dynamic objects : 15
Bed channel count : 1 channel
Bed channel configuration : LFE

Text #1
Format : UTF-8
Language : Czech
Default : Yes
Forced : Yes

Text #2
Format : UTF-8
Language : English
Default : No
Forced : No

FASTSHARE

Stavte si za 50€ úplne bez rizika. Keď netrafíte vrátime vám vklad
Len registrovaní užívatelia môžu vidiet odkazy v tejto sekcii
Zaregistrujte sa alebo sa prihláste !

Zobrazit informácie o autoroviOdoslať súkromnú správu
Zobraziť príspevky z predchádzajúcich:   
Prejsť na:   
Nemôžete pridávať nové témy do tejto sekcie.
Nemôžete odpovedať na témy v tejto sekcii.
Nemôžete upravovať svoje príspevky v tejto sekcii.
Nemôžete mazať svoje príspevky v tejto sekcii.
Nemôžete hlasovať v tomto fóre.

TOPlist

TOPlist TOPlist TOPlist

Upozornenie: Tato stránka služi výhradne ako diskúsne fórum prinášajúce množstvo informácií, rád, recenzií a návodov a je vám umožnené použivať ju len pre tento účel! Nevyúživajte túto stránku k uverejňovaniu akéhokolvek materiálu ku ktorému nemáte legálne opravnenie, alebo nie ste jeho vlastníkom. Prevádzkovatel tejto stránky odmieta akúkolvek zodpovednosť za vami uverejnené odkazy alebo materiál v rozpore so zákonom! Akékolvek šírenie autorsky chránených diel bez súhlasu autora je trestné!

V prípade najdenia nelegálneho obsahu nás prosím okamžite kontaktujte.

contatore visitewebsite counter

Odkazy: Internet, Vyšívané osušky, Vtipné tričká, Vtipné darčeky,
[ Doba načítania stránky: 0.1 sekúnd ] :: [ 15 dotazov ]
Powered by php.B.B. © php.B.B. Group © Best4you.sk 2007-2021