První očista / Prvá očista / The First Purge (2018) - download, online

Nápoveda • Pravidlá fóra • Hľadať • Zoznam užívateľov • Kontakt • Moja IP • Môj profil • Stahuj z FastShare.cz • Prihlásenie
Sponzorské žrebovanieRegistrácia • Väzenie • Nastavenia • Súkromné správy
468x60

První očista / Prvá očista / The First Purge (2018)

 LinkChecker
                                                 Našli ste pravidlá porušujúci príspevok alebo nefunkčný odkaz? Nahláste ho tlačidlom:                 Zobraziť predchádzajúcu tému Zobraziť nasledujúcu tému
Autor Správa
freesby89
Pokročilý



Založený: 01 február 2008
Príspevky: 848
Poďakovaní 17 v 15 Príspevkoch

PríspevokZaslal: St október 03, 2018 8:16 pm    Predmet: První očista / Prvá očista / The First Purge (2018) Odpovedať s citátom



První očista / Prvá očista / The First Purge (2018)




Stavte si za 50€ úplne bez rizika. Keď netrafíte vrátime vám vklad
Len registrovaní užívatelia môžu vidiet odkazy v tejto sekcii
Zaregistrujte sa alebo sa prihláste !



The.First.Purge.2018.1080p.BluRay.x264-DRONES + cz titulky vložené vo filme


Jazyk: ENG
Titulky: CZ, ENG

Formát : Matroska
Format_Version : Version 4 / Version 2
Veľkosť súboru : 7,65 GiB
Trvanie : 1 h 37 min
Celkový dátový tok : 11,2 Mb/s

Video
ID : 1
Formát : AVC
Formát/Info : Advanced Video Codec
Profil formátu : High@L4.1
Nastavenia formátu : CABAC / 5 Ref Frames
Format_Settings_CABAC/String : Áno
Format_Settings_RefFrames/String : 5snímok
Označenie kodeku : V_MPEG4/ISO/AVC
Trvanie : 1 h 37 min
Dátový tok : 9 734 kb/s
Šírka : 1 920 pixelov
Výška : 808 pixelov
Pomer strán : 2,40:1
Režim frekvencie snímok : Konštantný
Frekvencia snímok : 23,976 (24000/1001) snímok/sek.
Default : Áno
Forced : Nie

Audio
ID : 2
Formát : DTS
Formát/Info : Digital Theater Systems
Označenie kodeku : A_DTS
Trvanie : 1 h 37 min
Režim dátového toku : Konštantný dátový tok
Dátový tok : 1 509 kb/s
Kanál(y) : 6 kanálov
Channel positions : Front: L C R, Side: L R, LFE
Sampling rate : 48,0 kHz
Frekvencia snímok : 93,750 snímok/sek. (512 SPF)
BitDepth/String : 24 bity
StreamSize/String : 1,03 GiB (13%)
Jazyk : Anglicky
Default : Áno
Forced : Nie

Text
ID : 3
Formát : UTF-8
Označenie kodeku : S_TEXT/UTF8
Označenie kodeku/Info : UTF-8 Plain Text
Trvanie : 1 h 30 min
Dátový tok : 59 b/s
ElementCount : 1394
StreamSize/String : 39,6 kiB (0%)
Jazyk : Česky
Default : Áno
Forced : Nie

Menu
00:00:00.000 : en:00:00:00.000
00:06:25.635 : en:00:06:25.635
00:11:59.802 : en:00:11:59.802
00:16:18.769 : en:00:16:18.769
00:21:18.110 : en:00:21:18.110
00:25:56.388 : en:00:25:56.388
00:30:54.144 : en:00:30:54.144
00:35:31.212 : en:00:35:31.212
00:38:41.110 : en:00:38:41.110
00:43:02.455 : en:00:43:02.455
00:48:34.411 : en:00:48:34.411
00:53:35.087 : en:00:53:35.087
00:55:59.565 : en:00:55:59.565
00:59:13.049 : en:00:59:13.049
01:05:25.713 : en:01:05:25.713
01:09:31.793 : en:01:09:31.793
01:13:23.733 : en:01:13:23.733
01:19:47.533 : en:01:19:47.533
01:24:50.043 : en:01:24:50.043
01:29:54.931 : en:01:29:54.931

Stavte si za 50€ úplne bez rizika. Keď netrafíte vrátime vám vklad
Len registrovaní užívatelia môžu vidiet odkazy v tejto sekcii
Zaregistrujte sa alebo sa prihláste !



// upravené podľa pravidiel
// Asgard

Zobrazit informácie o autoroviOdoslať súkromnú správu
maranello
Profesionál



Založený: 27 august 2007
Príspevky: 1686
Poďakovaní 235 v 188 Príspevkoch

PríspevokZaslal: Št október 04, 2018 8:59 am    Predmet: První očista / Prvá očista / The First Purge (2018) Odpovedať s citátom


První očista / Prvá očista / The First Purge (2018)


Stavte si za 50€ úplne bez rizika. Keď netrafíte vrátime vám vklad
Len registrovaní užívatelia môžu vidiet odkazy v tejto sekcii
Zaregistrujte sa alebo sa prihláste !


Thriller / Akční / Horor / Sci-Fi
USA, 2018, 103 min

Režie: Gerard McMurray
Scénář: James DeMonaco
Kamera: Anastas N. Michos
Hudba: Kevin Lax
Hrají: Y'lan Noel, Lex Scott Davis, Joivan Wade, Patch Darragh, Marisa Tomei, Lauren Vélez

Přežít dvanáct hodin, během nichž pro vás nehnou prstem ani policajti ani záchranáři. To je cíl potenciálních obětí Očisty. Ti ostatní tuhle noc chtějí využít k beztrestnému vybití agrese a vyřízení účtů. Dnes večer to bude poprvé. Co se stane, nikdo neví, ale hezký pohled to asi nebude.


File size : 7.65 GiB
Duration : 1 h 37 min
Overall bit rate : 11.2 Mb/s


Video
Format : AVC
Format profile : High@L4.1
Format settings : CABAC / 5 Ref Frames
Format settings, ReFrames : 5 frames
Codec ID : V_MPEG4/ISO/AVC
Bit rate : 9 734 kb/s
Width : 1 920 pixels
Height : 808 pixels
Display aspect ratio : 2.40:1
Frame rate : 23.976 (24000/1001) FPS


Audio
Format : DTS
Bit rate : 1 509 kb/s
Channel(s) : 6 channels
Channel positions : Front: L C R, Side: L R, LFE
Sampling rate : 48.0 kHz
Frame rate : 93.750 FPS (512 SPF)
Bit depth : 24 bits
Language : English

Titulky
Language : Czech
Language : English


Stavte si za 50€ úplne bez rizika. Keď netrafíte vrátime vám vklad
Len registrovaní užívatelia môžu vidiet odkazy v tejto sekcii
Zaregistrujte sa alebo sa prihláste !

Zobrazit informácie o autoroviOdoslať súkromnú správu
Sonty
Mierne pokročilý



Založený: 01 apríl 2008
Príspevky: 464
Poďakovaní 17 v 6 Príspevkoch

PríspevokZaslal: St jún 22, 2022 3:04 pm    Predmet: Odpovedať s citátom


První očista / First Purge, The (2018)

Video/Zdroj: BluRay 1080p
Audio: EN DTS-HD 7.1ch, EN DTS 5.1ch, EN AC-3 2ch
Titulky: CZ forced, EN


CSFD / IMDB
Stavte si za 50€ úplne bez rizika. Keď netrafíte vrátime vám vklad
Len registrovaní užívatelia môžu vidiet odkazy v tejto sekcii
Zaregistrujte sa alebo sa prihláste !


INFO
Format : Matroska
Format version : Version 4
File size : 23.4 GiB
Duration : 1 h 37 min
Overall bit rate mode : Variable
Overall bit rate : 34.4 Mb/s

Video
Format : AVC
Format/Info : Advanced Video Codec
Format profile : High@L4.1
Format settings : CABAC / 4 Ref Frames
Format settings, CABAC : Yes
Format settings, Reference : 4 frames
Duration : 1 h 37 min
Bit rate mode : Variable
Bit rate : 25.8 Mb/s
Maximum bit rate : 27.0 Mb/s
Width : 1 920 pixels
Height : 1 080 pixels

Display aspect ratio : 16:9
Frame rate mode : Constant
Frame rate : 23.976 (24000/1001) FPS
Color space : YUV
Chroma subsampling : 4Plač0
Bit depth : 8 bits
Scan type : Progressive
Bits/(Pixel*Frame) : 0.520
Stream size : 17.6 GiB (75%)

Audio #1
Format : DTS XLL X
Format/Info : Digital Theater Systems
Commercial name : DTS-HD Master Audio
Duration : 1 h 37 min
Bit rate mode : Variable
Bit rate : 6 816 kb/s
Channel(s) : 8 channels
Channel(s)_Original : Object Based
ChannelLayout_Original : Object Based
Sampling rate : 48.0 kHz
Frame rate : 93.750 FPS (512 SPF)
Bit depth : 24 bits
Stream size : 4.64 GiB (20%)
Language : English
Default : Yes
Forced : No

Audio #2
Format : DTS
Format/Info : Digital Theater Systems
Duration : 1 h 37 min
Bit rate mode : Constant
Bit rate : 1 509 kb/s
Channel(s) : 6 channels
Channel layout : C L R Ls Rs LFE
Sampling rate : 48.0 kHz
Frame rate : 93.750 FPS (512 SPF)
Bit depth : 24 bits
Compression mode : Lossy
Stream size : 1.03 GiB (4%)
Language : English
Default : No
Forced : No

Audio #3
Format : AC-3
Format/Info : Audio Coding 3
Commercial name : Dolby Digital
Duration : 1 h 37 min
Bit rate mode : Constant
Bit rate : 192 kb/s
Channel(s) : 2 channels
Channel layout : L R
Sampling rate : 48.0 kHz
Frame rate : 31.250 FPS (1536 SPF)
Compression mode : Lossy
Stream size : 134 MiB (1%)
Language : English
Default : No
Forced : No

Text #1
Format : UTF-8
Language : Czech
Default : Yes
Forced : Yes

Text #2
Format : PGS
Language : English
Default : No
Forced : No

FASTSHARE

Stavte si za 50€ úplne bez rizika. Keď netrafíte vrátime vám vklad
Len registrovaní užívatelia môžu vidiet odkazy v tejto sekcii
Zaregistrujte sa alebo sa prihláste !


Stavte si za 50€ úplne bez rizika. Keď netrafíte vrátime vám vklad
Len registrovaní užívatelia môžu vidiet odkazy v tejto sekcii
Zaregistrujte sa alebo sa prihláste !


Balené bez kompresie. Bez hesla. Pridaný záznam pre opravu dát 5%.

Zobrazit informácie o autoroviOdoslať súkromnú správu
Zobraziť príspevky z predchádzajúcich:   
Prejsť na:   
Nemôžete pridávať nové témy do tejto sekcie.
Nemôžete odpovedať na témy v tejto sekcii.
Nemôžete upravovať svoje príspevky v tejto sekcii.
Nemôžete mazať svoje príspevky v tejto sekcii.
Nemôžete hlasovať v tomto fóre.

TOPlist

TOPlist TOPlist TOPlist

Upozornenie: Tato stránka služi výhradne ako diskúsne fórum prinášajúce množstvo informácií, rád, recenzií a návodov a je vám umožnené použivať ju len pre tento účel! Nevyúživajte túto stránku k uverejňovaniu akéhokolvek materiálu ku ktorému nemáte legálne opravnenie, alebo nie ste jeho vlastníkom. Prevádzkovatel tejto stránky odmieta akúkolvek zodpovednosť za vami uverejnené odkazy alebo materiál v rozpore so zákonom! Akékolvek šírenie autorsky chránených diel bez súhlasu autora je trestné!

V prípade najdenia nelegálneho obsahu nás prosím okamžite kontaktujte.

contatore visitewebsite counter

Odkazy: Internet, Vyšívané osušky, Vtipné tričká, Vtipné darčeky,
[ Doba načítania stránky: 0.2 sekúnd ] :: [ 17 dotazov ]
Powered by php.B.B. © php.B.B. Group © Best4you.sk 2007-2021