Rychlý prachy - Všetko s týmto v názve sem !!! - download, online

LIVE STREAMINGNápoveda • Pravidlá fóra • Hľadať • Zoznam užívateľov • Kontakt • Moja IP • Môj profil • XXX fórum • Prihlásenie
Nový youtuber showPayneOdmeny uživatelomRegistrácia • Väzenie • Nastavenia • Súkromné správy • Humorné darčeky pre každý okamih


IZMAEL.eu

Rychlý prachy - Všetko s týmto v názve sem !!!

 LinkChecker
                                                 Našli ste pravidlá porušujúci príspevok alebo nefunkčný odkaz? Nahláste ho tlačidlom:                 Zobraziť predchádzajúcu tému Zobraziť nasledujúcu tému
Autor Správa
molinor
Prispievateľ



Založený: 01 august 2008
Príspevky: 216
Poďakovaní 31 v 24 Príspevkoch

PríspevokZaslal: Po január 21, 2013 7:51 pm    Predmet: Rychlý prachy - Všetko s týmto v názve sem !!! Odpovedať s citátom
Kristýna - 76. úlovek
Datum: 17.08.2013
Místo: Praha - Ladronka



Format : AVI at 3 311 Kbps
Length : 452 MiB for 19mn 5s 25ms

Video #0 : xvid at 3 234 Kbps
Aspect : 640 x 480 (1.333) at 30.000 fps

Audio #0 : MPEG Audio at 64,0 Kbps
Infos : 2 kanály, 44,1 KHz


Doporučujeme: Sledujte športové prenosy naživo a zadarmo ?
Len registrovaní užívatelia môžu vidiet odkazy v tejto sekcii
Zaregistrujte sa alebo sa prihláste !


Naposledy upravil molinor dňa Po január 28, 2013 7:06 am, celkom upravené 1 krát.

Zobrazit informácie o autoroviOdoslať súkromnú správu
vladkoo
Sponzor



Založený: 07 február 2008
Príspevky: 3991
Poďakovaní 30 v 28 Príspevkoch

PríspevokZaslal: Ne december 21, 2014 3:52 pm    Predmet: Odpovedať s citátom
Honza - Czech Streets 81




Hi there! My name is Honza. I took up the challenge and took over the camera in the legendary CzechStreets series. I’ll do my best to boost it up. I’ll talk pretty Czech chicks into fucking for money in public. My first mission started at Wenceslas Square. I gave 3 grand to every chick who showed me her jugs. Do you want to know the hard statistics? 10:2 for peevish chicks. The crushing defeat of daredevil chicks was more than compensated for by an incredibly spunky specimen. Katerina, 20, is a student. I gave her 20,000 in hard cash but I could do anything I wanted with her. I gave her butthole a hell of dirty pounding and spewed on her cheeky face!!! This was a fucking spree of my life! She might be the prettiest of all chicks in the history of this series! Stay tuned!

Format : Windows Media
File size : 996 MiB
Duration : 28mn 59s
Overall bit rate : 4 801 Kbps
Maximum Overall bit rate : 3 128 Kbps
Encoded date : UTC 1970-01-01 00:00:00.000
WM/EncodingSettings : Lavf55.19.104

Video
ID : 1
Format : WMV2
Codec ID : WMV2
Codec ID/Info : Windows Media Video 8
Description of the codec : wmv2
Duration : 28mn 59s
Bit rate : 4 474 Kbps
Width : 1 280 pixels
Height : 720 pixels
Display aspect ratio : 16:9
Frame rate : 25.000 fps
Bit depth : 8 bits
Bits/(Pixel*Frame) : 0.194
Stream size : 928 MiB (93%)

Audio
ID : 2
Format : WMA
Format version : Version 2
Codec ID : 161
Codec ID/Info : Windows Media Audio
Description of the codec : Windows Media Audio V8
Duration : 28mn 59s
Bit rate : 128 Kbps
Channel count : 2 channels
Sampling rate : 48.0 KHz
Bit depth : 16 bits
Stream size : 26.5 MiB (3%)

Doporučujeme: Sledujte športové prenosy naživo a zadarmo ?
Len registrovaní užívatelia môžu vidiet odkazy v tejto sekcii
Zaregistrujte sa alebo sa prihláste !
















CZECH STREETS 82




Doporučujeme: Sledujte športové prenosy naživo a zadarmo ?
Len registrovaní užívatelia môžu vidiet odkazy v tejto sekcii
Zaregistrujte sa alebo sa prihláste !


Thank you for your support and enthusiastic response to the previous episode. I’m glad you’re having fun! Knowing about your support, I set out for a night hunt. I sniffed out two amazing blondes. It turned out they’re sisters! I bought them a shot. The older sister left with her frigging boyfriend. I was left alone with the younger sister, Verca, 33, who was more than willing to get boozed with me. She moaned that her boyfriend has not been fucking her enough! I offered her 10,000 for a quick blowjob at the toilet. It was more than clear that she loved money and she hadn’t had it for quite some time. Big up for me! I gave her some extra money and fucked her on a urinal! The whole bar saw us! An incredible fucking tornado, dudes! Have fun!

Format : Windows Media
File size : 724 MiB
Duration : 26mn 49s
Overall bit rate : 3 772 Kbps
Maximum Overall bit rate : 3 128 Kbps
Encoded date : UTC 1970-01-01 00:00:00.000
WM/EncodingSettings : Lavf55.19.104

Video
ID : 1
Format : WMV2
Codec ID : WMV2
Codec ID/Info : Windows Media Video 8
Description of the codec : wmv2
Duration : 26mn 49s
Bit rate : 3 486 Kbps
Width : 1 280 pixels
Height : 720 pixels
Display aspect ratio : 16:9
Frame rate : 25.000 fps
Bit depth : 8 bits
Bits/(Pixel*Frame) : 0.151
Stream size : 669 MiB (92%)

Audio
ID : 2
Format : WMA
Format version : Version 2
Codec ID : 161
Codec ID/Info : Windows Media Audio
Description of the codec : Windows Media Audio V8
Duration : 26mn 49s
Bit rate : 128 Kbps
Channel count : 2 channels
Sampling rate : 48.0 KHz
Bit depth : 16 bits
Stream size : 24.6 MiB (3%)

Doporučujeme: Sledujte športové prenosy naživo a zadarmo ?
Len registrovaní užívatelia môžu vidiet odkazy v tejto sekcii
Zaregistrujte sa alebo sa prihláste !










Czech Streets 83





CzechStreets on mountains? Never seen before! I shook dust off my father’s sledge and went for a weekend trip to Jested. I set a trap for lovely skiers and snowboarders under the slope. The most promising catch were two students. Best friends and well-behaved girls. Such a challenge! I had a chit chat with them and I realized they wouldn’t mind making some extra money. Simona, the more beautiful of them, was quite docile. I invited her for a sledge ride. And a bonus – a ride on my cock! The shy girl nodded when I gave her 6,000. I screwed her just by the busy lift! She’s not likely to forget it – she had my cum even in her hair! A 18-year-old chick with cum all over her on the piste! Only here!

Format : Windows Media
File size : 773 MiB
Duration : 21mn 34s
Overall bit rate : 5 010 Kbps
Maximum Overall bit rate : 128 Kbps
Encoded date : UTC 1970-01-01 00:00:00.000
WM/EncodingSettings : Lavf56.15.102

Video
ID : 1
Format : WMV2
Codec ID : WMV2
Codec ID/Info : Windows Media Video 8
Description of the codec : wmv2
Duration : 21mn 34s
Bit rate : 4 674 Kbps
Width : 1 280 pixels
Height : 720 pixels
Display aspect ratio : 16:9
Frame rate : 25.000 fps
Bit depth : 8 bits
Bits/(Pixel*Frame) : 0.203
Stream size : 721 MiB (93%)

Audio
ID : 2
Format : WMA
Format version : Version 2
Codec ID : 161
Codec ID/Info : Windows Media Audio
Description of the codec : Windows Media Audio V8
Duration : 21mn 34s
Bit rate : 128 Kbps
Channel count : 2 channels
Sampling rate : 48.0 KHz
Bit depth : 16 bits
Stream size : 19.7 MiB (3%)

Doporučujeme: Sledujte športové prenosy naživo a zadarmo ?
Len registrovaní užívatelia môžu vidiet odkazy v tejto sekcii
Zaregistrujte sa alebo sa prihláste !









Czech Streets 84






We’ve been giving away easy money to Czech girls right on streets for 8 years. Time flies! We’ve had a couple of guys here but the concept remains the same! Thanks for your support! We went to celebrate our eight birthday to a fitness studio. It’s the perfect place. There’s a heavy concentration of sporty chicks here. You can just point your finger and choose one. I chose the best hottie and started a little chit-chat with her. She took the bait right off! I kept an eye on her and followed her to the locker room. I offered her 20,000 in easy money for a special service. It was not easy to make her ditch her good upbringing! She gave up finally and I banged her luscious lean pussy! Right in the locker room!!! This is better than anything I’ve ever dreamt of! Thank you for your support! We will bring you more episodes!

Format : Windows Media
File size : 812 MiB
Duration : 19mn 47s
Overall bit rate : 5 734 Kbps
Maximum Overall bit rate : 128 Kbps
Encoded date : UTC 1970-01-01 00:00:00.000

WM/EncodingSettings : Lavf56.15.102

Video
ID : 1
Format : WMV2
Codec ID : WMV2
Codec ID/Info : Windows Media Video 8
Description of the codec : wmv2
Duration : 19mn 47s
Bit rate : 5 370 Kbps
Width : 1 280 pixels
Height : 720 pixels
Display aspect ratio : 16:9
Frame rate : 29.970 fps
Bit depth : 8 bits
Bits/(Pixel*Frame) : 0.194
Stream size : 760 MiB (94%)

Audio
ID : 2
Format : WMA
Format version : Version 2
Codec ID : 161
Codec ID/Info : Windows Media Audio
Description of the codec : Windows Media Audio V8
Duration : 19mn 47s
Bit rate : 128 Kbps
Channel count : 2 channels
Sampling rate : 48.0 KHz
Bit depth : 16 bits
Stream size : 18.1 MiB (2%)

Doporučujeme: Sledujte športové prenosy naživo a zadarmo ?
Len registrovaní užívatelia môžu vidiet odkazy v tejto sekcii
Zaregistrujte sa alebo sa prihláste !









Vanessa - Czech Streets 86





Format : MPEG-4
Format profile : Base Media
Codec ID : isom
File size : 937 MiB
Duration : 31mn 38s
Overall bit rate : 4 139 Kbps
Writing application : Lavf55.19.104

Video
ID : 1
Format : AVC
Format/Info : Advanced Video Codec
Format profile : High@L5.0
Format settings, CABAC : Yes
Format settings, ReFrames : 5 frames
Codec ID : avc1
Codec ID/Info : Advanced Video Coding
Duration : 31mn 38s
Bit rate : 4 000 Kbps
Width : 1 920 pixels
Height : 1 080 pixels
Display aspect ratio : 16:9
Frame rate mode : Constant
Frame rate : 25.000 fps
Color space : YUV
Chroma subsampling : 4Plač0
Bit depth : 8 bits
Scan type : Progressive
Bits/(Pixel*Frame) : 0.077
Stream size : 907 MiB (97%)
Writing library : x264 core 122

Audio
ID : 2
Format : AAC
Format/Info : Advanced Audio Codec
Format profile : LC
Codec ID : 40
Duration : 31mn 38s
Bit rate mode : Constant
Bit rate : 128 Kbps
Channel count : 2 channels
Channel positions : Front: L R
Sampling rate : 48.0 KHz
Compression mode : Lossy
Delay relative to video : 80ms
Stream size : 28.9 MiB (3%)

Doporučujeme: Sledujte športové prenosy naživo a zadarmo ?
Len registrovaní užívatelia môžu vidiet odkazy v tejto sekcii
Zaregistrujte sa alebo sa prihláste !









Czech streets 55





Format : Windows Media
File size : 525 MiB
Duration : 23mn 9s
Overall bit rate mode : Constant
Overall bit rate : 3 172 Kbps
Maximum Overall bit rate : 3 089 Kbps
Encoded date : UTC 1970-01-01 00:00:00.000
WM/EncodingSettings : Lavf54.3.100
MediaFoundationVersion : 2.112

Video
ID : 1
Format : WMV2
Codec ID : WMV2
Codec ID/Info : Windows Media Video 8
Description of the codec : wmv2
Duration : 23mn 9s
Bit rate mode : Constant
Bit rate : 2 957 Kbps
Width : 720 pixels
Height : 576 pixels
Display aspect ratio : 5:4
Frame rate : 25.000 fps
Standard : PAL
Bit depth : 8 bits
Bits/(Pixel*Frame) : 0.285
Stream size : 490 MiB (93%)

Audio
ID : 2
Format : WMA
Format version : Version 2
Codec ID : 161
Codec ID/Info : Windows Media Audio
Description of the codec : Windows Media Audio V8
Duration : 23mn 9s
Bit rate mode : Constant
Bit rate : 132 Kbps
Channel count : 2 channels
Sampling rate : 48.0 KHz
Bit depth : 16 bits
Stream size : 21.8 MiB (4%)

Doporučujeme: Sledujte športové prenosy naživo a zadarmo ?
Len registrovaní užívatelia môžu vidiet odkazy v tejto sekcii
Zaregistrujte sa alebo sa prihláste !









Czech Streets 87





Format : MPEG-4
Format profile : Base Media
Codec ID : isom
File size : 566 MiB
Duration : 18mn 53s
Overall bit rate : 4 186 Kbps
Writing application : Lavf55.19.104

Video
ID : 1
Format : AVC
Format/Info : Advanced Video Codec
Format profile : High@L5.0
Format settings, CABAC : Yes
Format settings, ReFrames : 5 frames
Codec ID : avc1
Codec ID/Info : Advanced Video Coding
Duration : 18mn 53s
Bit rate : 4 000 Kbps
Width : 1 920 pixels
Height : 1 080 pixels
Display aspect ratio : 16:9
Frame rate mode : Constant
Frame rate : 25.000 fps
Color space : YUV
Chroma subsampling : 4Plač0
Bit depth : 8 bits
Scan type : Progressive
Bits/(Pixel*Frame) : 0.077
Stream size : 547 MiB (97%)
Writing library : x264 core 122

Audio
ID : 2
Format : AAC
Format/Info : Advanced Audio Codec
Format profile : LC
Codec ID : 40
Duration : 18mn 53s
Bit rate mode : Constant
Bit rate : 128 Kbps
Channel count : 2 channels
Channel positions : Front: L R
Sampling rate : 48.0 KHz
Compression mode : Lossy
Delay relative to video : 80ms
Stream size : 17.3 MiB (3%)

Doporučujeme: Sledujte športové prenosy naživo a zadarmo ?
Len registrovaní užívatelia môžu vidiet odkazy v tejto sekcii
Zaregistrujte sa alebo sa prihláste !








Mazzy - Czech streets 56



Format : Windows Media
File size : 487 MiB
Duration : 21mn 27s
Overall bit rate mode : Constant
Overall bit rate : 3 172 Kbps
Maximum Overall bit rate : 3 070 Kbps
Encoded date : UTC 1970-01-01 00:00:00.000
WM/EncodingSettings : Lavf54.3.100
MediaFoundationVersion : 2.112

Video
ID : 1
Format : WMV2
Codec ID : WMV2
Codec ID/Info : Windows Media Video 8
Description of the codec : wmv2
Duration : 21mn 27s
Bit rate mode : Constant
Bit rate : 2 939 Kbps
Width : 720 pixels
Height : 576 pixels
Display aspect ratio : 5:4
Frame rate : 25.000 fps
Standard : PAL
Bit depth : 8 bits
Bits/(Pixel*Frame) : 0.283
Stream size : 451 MiB (93%)

Audio
ID : 2
Format : WMA
Format version : Version 2
Codec ID : 161
Codec ID/Info : Windows Media Audio
Description of the codec : Windows Media Audio V8
Duration : 21mn 27s
Bit rate mode : Constant
Bit rate : 132 Kbps
Channel count : 2 channels
Sampling rate : 48.0 KHz
Bit depth : 16 bits
Stream size : 20.2 MiB (4%)

Doporučujeme: Sledujte športové prenosy naživo a zadarmo ?
Len registrovaní užívatelia môžu vidiet odkazy v tejto sekcii
Zaregistrujte sa alebo sa prihláste !











Denisa - Czech Streets 88






Format : MPEG-4
Format profile : Base Media / Version 2
Codec ID : mp42
File size : 661 MiB
Duration : 24mn 21s
Overall bit rate mode : Variable
Overall bit rate : 3 791 Kbps
Encoded date : UTC 2015-09-20 19:37:33
Tagged date : UTC 2015-09-20 19:37:33
Xtra : WM/MediaClassPrimaryID

Video
ID : 2
Format : AVC
Format/Info : Advanced Video Codec
Format profile : Main@L3.2
Format settings, CABAC : Yes
Format settings, ReFrames : 3 frames
Codec ID : avc1
Codec ID/Info : Advanced Video Coding
Duration : 24mn 21s
Bit rate mode : Variable
Bit rate : 3 595 Kbps
Maximum bit rate : 4 000 Kbps
Width : 1 280 pixels
Height : 720 pixels
Display aspect ratio : 16:9
Frame rate mode : Constant
Frame rate : 25.000 fps
Standard : NTSC
Color space : YUV
Chroma subsampling : 4Plač0
Bit depth : 8 bits
Scan type : Progressive
Bits/(Pixel*Frame) : 0.156
Stream size : 626 MiB (95%)
Language : English
Encoded date : UTC 2015-09-20 19:37:33
Tagged date : UTC 2015-09-20 19:37:33

Audio
ID : 1
Format : AAC
Format/Info : Advanced Audio Codec
Format profile : LC
Codec ID : 40
Duration : 24mn 21s
Bit rate mode : Constant
Bit rate : 192 Kbps
Channel count : channel0
Original Channel count : 2 channels
Channel positions : Front: L R
Sampling rate : 48.0 KHz
Compression mode : Lossy
Stream size : 33.5 MiB (5%)
Language : English
Encoded date : UTC 2015-09-20 19:37:33
Tagged date : UTC 2015-09-20 19:37:33

Doporučujeme: Sledujte športové prenosy naživo a zadarmo ?
Len registrovaní užívatelia môžu vidiet odkazy v tejto sekcii
Zaregistrujte sa alebo sa prihláste !















Czech Streets # 89






Have you ever tried to talk a preggy into fucking for money! Not a bad idea! Podoli is the paradise of all preggies. I was waiting for some hottie with a camera in front of the hospital. The biggest tummy takes it all! I was lucky. I came across a young babe who is about to have twins!!! Tereza is only 22. The dad of the twins dumped her. Such a jerk! And this lovely girl is facing an unclear future. I offered to pay her off maternity grant for each child. 2 x 10,000. She wouldn’t get so much from anyone else. She agreed and we ended up fucking in shrubs. She straddled my cock and I was delighted by her enormous belly and swollen tits. An incredible fucking spree with a preggy! Never seen before!

Format : MPEG-4
Format profile : Base Media
Codec ID : isom
File size : 602 MiB
Duration : 19mn 38s
Overall bit rate : 4 284 Kbps
Writing application : Lavf56.36.100
Video #1
ID : 1
Format : AVC
Format/Info : Advanced Video Codec
Format profile : High@L5
Format settings, CABAC : Yes
Format settings, ReFrames : 5 frames
Codec ID : avc1
Codec ID/Info : Advanced Video Coding
Duration : 19mn 38s
Bit rate : 4 000 Kbps
Width : 1 920 pixels
Height : 1 080 pixels
Display aspect ratio : 16:9
Frame rate mode : Constant
Frame rate : 25.000 fps
Color space : YUV
Chroma subsampling : 4Plač0
Bit depth : 8 bits
Scan type : Progressive
Bits/(Pixel*Frame) : 0.077
Stream size : 583 MiB (97%)
Writing library : x264 core 148 r2 e86f3a1
Audio #2
ID : 2
Format : AAC
Format/Info : Advanced Audio Codec
Format profile : LC
Codec ID : 40
Duration : 19mn 38s
Bit rate mode : Constant
Bit rate : 128 Kbps
Channel(s) : 2 channels
Channel positions : Front: L R
Sampling rate : 48.0 KHz
Compression mode : Lossy
Stream size : 17.9 MiB (3%)

Doporučujeme: Sledujte športové prenosy naživo a zadarmo ?
Len registrovaní užívatelia môžu vidiet odkazy v tejto sekcii
Zaregistrujte sa alebo sa prihláste !


// Prispevky zlucil Asgard

Zobrazit informácie o autoroviOdoslať súkromnú správu
Niran
Pokročilý



Založený: 11 november 2012
Príspevky: 584
Poďakovaní 68 v 60 Príspevkoch

PríspevokZaslal: Št január 05, 2017 8:19 am    Predmet: Odpovedať s citátom
RychlyPrachy 126. ulovok - Petra (03.01.2017)





Screen:
Doporučujeme: Sledujte športové prenosy naživo a zadarmo ?
Len registrovaní užívatelia môžu vidiet odkazy v tejto sekcii
Zaregistrujte sa alebo sa prihláste !



Info:

Doporučujeme: Sledujte športové prenosy naživo a zadarmo ?
Len registrovaní užívatelia môžu vidiet odkazy v tejto sekcii
Zaregistrujte sa alebo sa prihláste !



DOWNLOAD Fastshare:

Doporučujeme: Sledujte športové prenosy naživo a zadarmo ?
Len registrovaní užívatelia môžu vidiet odkazy v tejto sekcii
Zaregistrujte sa alebo sa prihláste !


DOWNLOAD EuroShare:

Doporučujeme: Sledujte športové prenosy naživo a zadarmo ?
Len registrovaní užívatelia môžu vidiet odkazy v tejto sekcii
Zaregistrujte sa alebo sa prihláste !


DOWNLOAD Hellshare:

Doporučujeme: Sledujte športové prenosy naživo a zadarmo ?
Len registrovaní užívatelia môžu vidiet odkazy v tejto sekcii
Zaregistrujte sa alebo sa prihláste !


RychlyPrachy 127. ulovok - Denisa (03.02.2017)






Screen:
Doporučujeme: Sledujte športové prenosy naživo a zadarmo ?
Len registrovaní užívatelia môžu vidiet odkazy v tejto sekcii
Zaregistrujte sa alebo sa prihláste !



Info:

Doporučujeme: Sledujte športové prenosy naživo a zadarmo ?
Len registrovaní užívatelia môžu vidiet odkazy v tejto sekcii
Zaregistrujte sa alebo sa prihláste !



Fastshare:

Doporučujeme: Sledujte športové prenosy naživo a zadarmo ?
Len registrovaní užívatelia môžu vidiet odkazy v tejto sekcii
Zaregistrujte sa alebo sa prihláste !

EuroShare:

Doporučujeme: Sledujte športové prenosy naživo a zadarmo ?
Len registrovaní užívatelia môžu vidiet odkazy v tejto sekcii
Zaregistrujte sa alebo sa prihláste !

Bitster:

Doporučujeme: Sledujte športové prenosy naživo a zadarmo ?
Len registrovaní užívatelia môžu vidiet odkazy v tejto sekcii
Zaregistrujte sa alebo sa prihláste !

Hellshare:

Doporučujeme: Sledujte športové prenosy naživo a zadarmo ?
Len registrovaní užívatelia môžu vidiet odkazy v tejto sekcii
Zaregistrujte sa alebo sa prihláste !


RychlyPrachy 128. ulovok - Lucia (05.03.2017)




Screen:
Doporučujeme: Sledujte športové prenosy naživo a zadarmo ?
Len registrovaní užívatelia môžu vidiet odkazy v tejto sekcii
Zaregistrujte sa alebo sa prihláste !


Info:

Doporučujeme: Sledujte športové prenosy naživo a zadarmo ?
Len registrovaní užívatelia môžu vidiet odkazy v tejto sekcii
Zaregistrujte sa alebo sa prihláste !



Doporučujeme: Sledujte športové prenosy naživo a zadarmo ?
Len registrovaní užívatelia môžu vidiet odkazy v tejto sekcii
Zaregistrujte sa alebo sa prihláste !


RychlyPrachy 129. úlovek - Veronika & Šárka a Ondra (09.04.2017)




Screen:
Doporučujeme: Sledujte športové prenosy naživo a zadarmo ?
Len registrovaní užívatelia môžu vidiet odkazy v tejto sekcii
Zaregistrujte sa alebo sa prihláste !


Info:

Doporučujeme: Sledujte športové prenosy naživo a zadarmo ?
Len registrovaní užívatelia môžu vidiet odkazy v tejto sekcii
Zaregistrujte sa alebo sa prihláste !



Doporučujeme: Sledujte športové prenosy naživo a zadarmo ?
Len registrovaní užívatelia môžu vidiet odkazy v tejto sekcii
Zaregistrujte sa alebo sa prihláste !


// Prispevky zlucil Asgard

Zobrazit informácie o autoroviOdoslať súkromnú správu
Rozdelené: Ne máj 28, 2017 10:44 pm, spojil Asgard
Z témy Rychlý prachy - Všetko s týmto v názve sem !!! (Videá AVI)
Zobraziť príspevky z predchádzajúcich:   
Prejsť na:   
Nemôžete pridávať nové témy do tejto sekcie.
Nemôžete odpovedať na témy v tejto sekcii.
Nemôžete upravovať svoje príspevky v tejto sekcii.
Nemôžete mazať svoje príspevky v tejto sekcii.
Nemôžete hlasovať v tomto fóre.

TOPlist

TOPlist TOPlist TOPlist

Upozornenie: Tato stránka služi výhradne ako diskúsne fórum prinášajúce množstvo informácií, rád, recenzií a návodov a je vám umožnené použivať ju len pre tento účel! Nevyúživajte túto stránku k uverejňovaniu akéhokolvek materiálu ku ktorému nemáte legálne opravnenie, alebo nie ste jeho vlastníkom. Prevádzkovatel tejto stránky odmieta akúkolvek zodpovednosť za vami uverejnené odkazy alebo materiál v rozpore so zákonom! Akékolvek šírenie autorsky chránených diel bez súhlasu autora je trestné!

V prípade najdenia nelegálneho obsahu nás prosím okamžite kontaktujte.

contatore visitewebsite counter

Odkazy: Internet, Vyšívané osušky, Vtipné tričká, Vtipné darčeky, Upload obrázkov
[ Doba načítania stránky: 0.5 sekúnd ] :: [ 18 dotazov ]
Powered by php.B.B. © php.B.B. Group © Best4you.sk 2007-2015