Temná věž / Temná veža / The Dark Tower (2017) - download, online

LIVE STREAMINGNápoveda • Pravidlá fóra • Hľadať • Zoznam užívateľov • Kontakt • Moja IP • Môj profil • Bižútéria, hodinky, kabelky a iné • Stahuj z FastShare.cz • Prihlásenie
Nový youtuber showPayneOdmeny uživatelomRegistrácia • Väzenie • Nastavenia • Súkromné správy • Humorné darčeky pre každý okamih • Top investičné zlato
Top zlaté a strieborné investičné zliatky a mince za výborne ceny s fyzickým dodaním klientovi


TIP: Hrajte o skvělé ceny každý den (free spiny, mobily, tablety, PS4) v casinu Tipsport Vegas ››
Gold-silber.sk IZMAEL.eu
Tipsport Casino bonus 5 000 Kč

Temná věž / Temná veža / The Dark Tower (2017)

 LinkChecker
                                                 Našli ste pravidlá porušujúci príspevok alebo nefunkčný odkaz? Nahláste ho tlačidlom:                 Zobraziť predchádzajúcu tému Zobraziť nasledujúcu tému
Autor Správa
RR900034
Pokročilý



Založený: 08 január 2017
Príspevky: 721
Poďakovaní 57 v 53 Príspevkoch

PríspevokZaslal: Pi október 20, 2017 5:35 pm    Predmet: Temná věž / Temná veža / The Dark Tower (2017) Odpovedať s citátom
Temná věž / Temná veža / The Dark Tower (2017)





Šperky, hodinky, kabelky, peňaženky, šatky a iné doplnky.
Len registrovaní užívatelia môžu vidiet odkazy v tejto sekcii
Zaregistrujte sa alebo sa prihláste !





Temna vez.The.Dark Tower.2017.CZ DABING.1080p.BluRay.mkv

Jazyk - CZ

Format : Matroska
Format version : Version 4 / Version 2
File size : 2.08 GiB
Duration : 1 h 34 min
Overall bit rate : 3 140 kb/s
Format : AVC
Codec ID : V_MPEG4/ISO/AVC
Width : 1 920 pixels
Height : 800 pixels
Display aspect ratio : 2.40:1
Frame rate : 23.976 FPS
ID : 2
Format : AC-3
Codec ID : A_AC3
Bit rate : 640 kb/s
Channel(s) : 6 channels
Channel positions : Front: L C R, Side: L R, LFE
Sampling rate : 48.0 kHz




Šperky, hodinky, kabelky, peňaženky, šatky a iné doplnky.
Len registrovaní užívatelia môžu vidiet odkazy v tejto sekcii
Zaregistrujte sa alebo sa prihláste !

Zobrazit informácie o autoroviOdoslať súkromnú správu
sniper00
Mierne pokročilý



Založený: 06 september 2008
Príspevky: 427
Poďakovaní 12 v 11 Príspevkoch

PríspevokZaslal: Pi október 20, 2017 11:11 pm    Predmet: Odpovedať s citátom




Šperky, hodinky, kabelky, peňaženky, šatky a iné doplnky.
Len registrovaní užívatelia môžu vidiet odkazy v tejto sekcii
Zaregistrujte sa alebo sa prihláste !



Free download link / Stiahnut zadarmo:

D:\prenos\Temna vez (2017-CZ-720p).mkv
General
Unique ID : 214272171304750602197011432653213983939 (0xA13351B04E62E1DFA88F1F7743DCE4C3)
Complete name : D:\prenos\Temna vez (2017-CZ-720p).mkv
Format : Matroska
Format version : Version 4 / Version 2
File size : 5.45 GiB
Duration : 1 h 34 min
Overall bit rate : 8 243 kb/s
Movie name : The.Dark.Tower.2017.CZ.720p.BluRay.x264.DD5.1-BST
Encoded date : UTC 2017-10-20 10:02:13
Writing application : mkvmerge v16.0.0 ('Protest') 64-bit
Writing library : libebml v1.3.5 + libmatroska v1.4.8
Video #4
ID : 4
Format : AVC
Format/Info : Advanced Video Codec
Format profile : High@L4.1
Format settings, CABAC : Yes
Format settings, ReFrames : 12 frames
Codec ID : V_MPEG4/ISO/AVC
Duration : 1 h 34 min
Bit rate : 6 960 kb/s
Width : 1 280 pixels
Height : 534 pixels
Display aspect ratio : 2.40:1
Frame rate mode : Constant
Frame rate : 23.976 (24000/1001) FPS
Color space : YUV
Chroma subsampling : 4Plač0
Bit depth : 8 bits
Scan type : Progressive
Bits/(Pixel*Frame) : 0.425
Stream size : 4.61 GiB (84%)
Title : The.Dark.Tower.2017.720p.BluRay.DD5.1.x264-HyperX
Writing library : x264 core 152 r2851kMod ba24899
Encoding settings : cabac=1 / ref=12 / deblock=1:-3:-3 / analyse=0x3:0x133 / me=umh / subme=11 / psy=1 / fade_compensate=0.00 / psy_rd=1.05:0.00 / mixed_ref=1 / me_range=24 / chroma_me=1 / trellis=2 / 8x8dct=1 / cqm=0 / deadzone=21,11 / fast_pskip=0 / chroma_qp_offset=-2 / threads=12 / lookahead_threads=2 / sliced_threads=0 / nr=0 / decimate=0 / interlaced=0 / bluray_compat=0 / constrained_intra=0 / bframes=8 / b_pyramid=2 / b_adapt=2 / b_bias=0 / direct=3 / weightb=1 / open_gop=0 / weightp=2 / keyint=250 / keyint_min=23 / scenecut=40 / intra_refresh=0 / rc=crf / mbtree=0 / crf=15.0000 / qcomp=0.60 / qpmin=0 / qpmax=69 / qpstep=4 / ip_ratio=1.35 / pb_ratio=1.30 / aq=3:0.85
Language : English
Default : Yes
Forced : Yes
Audio #1
ID : 1
Format : AC-3
Format/Info : Audio Coding 3
Mode extension : CM (complete main)
Format settings, Endianness : Big
Codec ID : A_AC3
Duration : 1 h 34 min
Bit rate mode : Constant
Bit rate : 640 kb/s
Channel(s) : 6 channels
Channel positions : Front: L C R, Side: L R, LFE
Sampling rate : 48.0 kHz
Frame rate : 31.250 FPS (1536 spf)
Compression mode : Lossy
Stream size : 434 MiB (8%)
Language : Czech
Default : Yes
Forced : Yes
Audio #5
ID : 5
Format : AC-3
Format/Info : Audio Coding 3
Mode extension : CM (complete main)
Format settings, Endianness : Big
Codec ID : A_AC3
Duration : 1 h 34 min
Bit rate mode : Constant
Bit rate : 640 kb/s
Channel(s) : 6 channels
Channel positions : Front: L C R, Side: L R, LFE
Sampling rate : 48.0 kHz
Frame rate : 31.250 FPS (1536 spf)
Compression mode : Lossy
Stream size : 434 MiB (8%)
Language : English
Default : No
Forced : No
Text #2
ID : 2
Format : UTF-8
Codec ID : S_TEXT/UTF8
Codec ID/Info : UTF-8 Plain Text
Duration : 1 h 18 min
Bit rate : 0 b/s
Count of elements : 14
Stream size : 351 Bytes (0%)
Title : Czech Forced
Language : Czech
Default : Yes
Forced : Yes
Text #3
ID : 3
Format : UTF-8
Codec ID : S_TEXT/UTF8
Codec ID/Info : UTF-8 Plain Text
Duration : 1 h 26 min
Bit rate : 38 b/s
Count of elements : 838
Stream size : 24.2 KiB (0%)
Title : Czech Full
Language : Czech
Default : No
Forced : No
Text #6
ID : 6
Format : UTF-8
Codec ID : S_TEXT/UTF8
Codec ID/Info : UTF-8 Plain Text
Duration : 1 h 25 min
Bit rate : 39 b/s
Count of elements : 892
Stream size : 24.7 KiB (0%)
Title : English Full
Language : English
Default : No
Forced : No
Jazyk : CZ Dabing





Šperky, hodinky, kabelky, peňaženky, šatky a iné doplnky.
Len registrovaní užívatelia môžu vidiet odkazy v tejto sekcii
Zaregistrujte sa alebo sa prihláste !

Zobrazit informácie o autoroviOdoslať súkromnú správu
Presunuté: Št november 09, 2017 9:41 pm, presunul Asgard
Z Filmy HD - SK/CZ dabing do Kôš (Archív)
Zobraziť príspevky z predchádzajúcich:   
Prejsť na:   
Nemôžete pridávať nové témy do tejto sekcie.
Nemôžete odpovedať na témy v tejto sekcii.
Nemôžete upravovať svoje príspevky v tejto sekcii.
Nemôžete mazať svoje príspevky v tejto sekcii.
Nemôžete hlasovať v tomto fóre.

TOPlist

TOPlist TOPlist TOPlist

Upozornenie: Tato stránka služi výhradne ako diskúsne fórum prinášajúce množstvo informácií, rád, recenzií a návodov a je vám umožnené použivať ju len pre tento účel! Nevyúživajte túto stránku k uverejňovaniu akéhokolvek materiálu ku ktorému nemáte legálne opravnenie, alebo nie ste jeho vlastníkom. Prevádzkovatel tejto stránky odmieta akúkolvek zodpovednosť za vami uverejnené odkazy alebo materiál v rozpore so zákonom! Akékolvek šírenie autorsky chránených diel bez súhlasu autora je trestné!

V prípade najdenia nelegálneho obsahu nás prosím okamžite kontaktujte.

contatore visitewebsite counter

Odkazy: Internet, Vyšívané osušky, Vtipné tričká, Vtipné darčeky, Upload obrázkov
[ Doba načítania stránky: 0.2 sekúnd ] :: [ 16 dotazov ]
Powered by php.B.B. © php.B.B. Group © Best4you.sk 2007-2018