Zločinec / Felon (2008) - download, online

Nápoveda • Pravidlá fóra • Hľadať • Zoznam užívateľov • Kontakt • Moja IP • Môj profil • XXX fórum • Prihlásenie
Upload obrázkovNový youtuber showPayneOdmeny uživatelomRegistrácia • Väzenie • Nastavenia • Súkromné správy • Humorné darčeky pre každý okamih


Zločinec / Felon (2008)

 LinkChecker
                                                 Našli ste pravidlá porušujúci príspevok alebo nefunkčný odkaz? Nahláste ho tlačidlom:                 Zobraziť predchádzajúcu tému Zobraziť nasledujúcu tému
Autor Správa
stano1975
Pokročilý



Založený: 18 júl 2009
Príspevky: 868
Poďakovaní 52 v 46 Príspevkoch

PríspevokZaslal: St január 06, 2010 11:44 am    Predmet: Zločinec / Felon (2008) Odpovedať s citátom
Zločinec / Felon (2008)




:CSFD
Len registrovaní užívatelia môžu vidiet odkazy v tejto sekcii
Zaregistrujte sa alebo sa prihláste !




citácia:

Do domu
mladé rodiny jednoho večera vtrhne zločin zosobněný násilníkem a zlodějem v jedné osobě. Manžel na zlosyna při
obraně svých blízkých sám zaútočí a zabije ho. Je obviněn a usvědčen z neúmyslného zabití a odsouzen ke třem rokům ve vězení s maximální ostrahou. Růžovou budoucnost nadějného mladého muže tak najednou vystřídá prostředí mezi zločinci nejhrubšího zrna, kde přestává platit standardní morálka a pro přežití se musí začít řídit zákony džungle, ve které
se ocitl


Typ Subor: AVI
Velkost: 949 MB
Bitova
frekvencia:128 kbps
trvanie :01:39:47



downland

upnito

1x949mb
Len registrovaní užívatelia môžu vidiet odkazy v tejto sekcii
Zaregistrujte sa alebo sa prihláste !

:PASS
Len registrovaní užívatelia môžu vidiet odkazy v tejto sekcii
Zaregistrujte sa alebo sa prihláste !


//premazané od nefunkčných linkov
//Hubi78

Zobrazit informácie o autoroviOdoslať súkromnú správu
tom306ghz
Pokročilý



Založený: 21 jún 2007
Príspevky: 778
Poďakovaní 65 v 55 Príspevkoch

PríspevokZaslal: Pi máj 23, 2014 9:28 am    Predmet: Odpovedať s citátom
Zločinec / Vykúpenie z väzenia / Felon (2008)

Felon.2008.DVDRip.XviD.AC3.CZ



CSFD
Len registrovaní užívatelia môžu vidiet odkazy v tejto sekcii
Zaregistrujte sa alebo sa prihláste !


Info:

Len registrovaní užívatelia môžu vidiet odkazy v tejto sekcii
Zaregistrujte sa alebo sa prihláste !


Download:


Len registrovaní užívatelia môžu vidiet odkazy v tejto sekcii
Zaregistrujte sa alebo sa prihláste !


//téma premazaná od nefunkčných príspevkov
//premazané od spamu
//Hubi78

Zobrazit informácie o autoroviOdoslať súkromnú správu
Sonty
Prispievateľ



Založený: 01 apríl 2008
Príspevky: 270
Poďakovaní 13 v 11 Príspevkoch

PríspevokZaslal: Po november 03, 2014 6:44 pm    Predmet: Odpovedať s citátom
Zločinec / Felon (2008)
DVDRip
Audio: CZ



Len registrovaní užívatelia môžu vidiet odkazy v tejto sekcii
Zaregistrujte sa alebo sa prihláste !


citácia:
Format : AVI
File size : 703 MiB
Duration : 1h 39mn
Overall bit rate : 986 Kbps

Video
Format : MPEG-4 Visual
Codec ID : XVID
Duration : 1h 39mn
Bit rate : 848 Kbps
Width : 640 pixels
Height : 336 pixels
Display aspect ratio : 1.905
Frame rate : 25.000 fps
Color space : YUV
Chroma subsampling : 4Plač0
Bit depth : 8 bits
Scan type : Progressive
Compression mode : Lossy
Bits/(Pixel*Frame) : 0.158
Stream size : 605 MiB (86%)

Audio
Format : MPEG Audio
Codec ID/Hint : MP3
Duration : 1h 39mn
Bit rate mode : Constant
Bit rate : 128 Kbps
Channel(s) : 2 channels
Sampling rate : 48.0 KHz
Compression mode : Lossy
Stream size : 91.4 MiB (13%)
Alignment : Aligned on interleaves
Interleave, duration : 40 ms (1.00 video frame)
Interleave, preload duration : 504 ms


Fastshare
Len registrovaní užívatelia môžu vidiet odkazy v tejto sekcii
Zaregistrujte sa alebo sa prihláste !

Zobrazit informácie o autoroviOdoslať súkromnú správu
Jehńa
Mierne pokročilý



Založený: 29 november 2015
Príspevky: 364
Poďakovaní 5 v 5 Príspevkoch

PríspevokZaslal: Št január 07, 2016 6:10 pm    Predmet: Odpovedať s citátom
Zločinec / Felon (2008) CZ



Csfd:
Len registrovaní užívatelia môžu vidiet odkazy v tejto sekcii
Zaregistrujte sa alebo sa prihláste !


Obsah:
citácia:
Do domu mladé rodiny jednoho večera vtrhne zločin zosobněný násilníkem a zlodějem v jedné osobě. Manžel na zlosyna při obraně svých blízkých sám zaútočí a zabije ho. Je obviněn a usvědčen z neúmyslného zabití a odsouzen ke třem rokům ve vězení s maximální ostrahou. Růžovou budoucnost nadějného mladého muže tak najednou vystřídá prostředí mezi zločinci nejhrubšího zrna, kde přestává platit standardní morálka a pro přežití se musí začít řídit zákony džungle, ve které se ocitl.(Nogard)

Kvalita:
Len registrovaní užívatelia môžu vidiet odkazy v tejto sekcii
Zaregistrujte sa alebo sa prihláste !


Link:
Len registrovaní užívatelia môžu vidiet odkazy v tejto sekcii
Zaregistrujte sa alebo sa prihláste !

Zobrazit informácie o autoroviOdoslať súkromnú správu
Zobraziť príspevky z predchádzajúcich:   
Prejsť na:   
Nemôžete pridávať nové témy do tejto sekcie.
Nemôžete odpovedať na témy v tejto sekcii.
Nemôžete upravovať svoje príspevky v tejto sekcii.
Nemôžete mazať svoje príspevky v tejto sekcii.
Nemôžete hlasovať v tomto fóre.

TOPlist

TOPlist TOPlist TOPlist

Upozornenie: Tato stránka služi výhradne ako diskúsne fórum prinášajúce množstvo informácií, rád, recenzií a návodov a je vám umožnené použivať ju len pre tento účel! Nevyúživajte túto stránku k uverejňovaniu akéhokolvek materiálu ku ktorému nemáte legálne opravnenie, alebo nie ste jeho vlastníkom. Prevádzkovatel tejto stránky odmieta akúkolvek zodpovednosť za vami uverejnené odkazy alebo materiál v rozpore so zákonom! Akékolvek šírenie autorsky chránených diel bez súhlasu autora je trestné!

V prípade najdenia nelegálneho obsahu nás prosím okamžite kontaktujte.

contatore visitewebsite counter

Odkazy: Internet, Vyšívané osušky, Vtipné tričká, Vtipné darčeky, Upload obrázkov
[ Doba načítania stránky: 0.6 sekúnd ] :: [ 19 dotazov ]
Powered by php.B.B. © php.B.B. Group © Best4you.sk 2007-2015